Малышарики / Серии: 1-60 из 120 (Марина Мошкова) [2015-2017, Обучающий мультфильм, BDRemux 1080p, RUS]

Ответить на тему
Статистика раздачи
Размер:  37,59 GB   |    Зарегистрирован:  2 месяца 11 дней   |    Скачан:  1 раз

Полного источника не было: 28 дней

Личеров:  2  [  0 KB/s  ]  
 
   
 
 
Автор Сообщение

Zlo ®

Пол: Не указан

Стаж: 1 год 3 месяца

Сообщений: 115

Создавать темы 11-Мар-2019 18:20

[Цитировать]

Малышарики: Сборник 1 (Remux)
-Страна: Россия
Студия: Студия Анимации "Петербург"
Жанр: Обучающий мультфильм
Год выпуска: 2015-2017
Продолжительность: 05:13:34
Русские субтитры: нет-Режиссёр: Марина Мошкова
Озвучивают малышариков: Марианна Мокшина, Светлана Кузнецова и Ксения Бржезовская.
Авторы-рассказчики: Анна Геллер (мама) и Константин Хабенский (папа).-Описание: "Малышарики" - это мир детской игры. Самый её разгар, когда игра неотличима от реальности. Главные персонажи - ожившие игрушки. Их жизнь протекает в квартире, где живет семья с детьми, которая всегда остается за кадром. Горы для них - это сложенные в стопку книги, а цветы в горшках - густой лес. День наступает, когда включают лампу, а ночь - когда её выключают. Поверхности стола может быть морем, а - ленточка ручейком. Малышарики - это детская фантазия. "Малышарики" - это простые сюжеты, основанные на уже знакомых малышу ситуациях; ритмичное, но комфортное для восприятия маленьким ребенком повествование и интерактивные элементы. Главные герои сериала – ожившие игрушки, вместе с которыми ребенок будет изучать мир, развиваться физически и эмоционально, учиться дружить и общаться со сверстниками и взрослыми. "Малышарики" - первый развивающий проект в жизни малыша! Растите и развивайтесь вместе с "Малышариками"! Проект разработан при участии детских психологов и педагогов.-Дополнительная информация: BDRemux сделан из раздачи Blu-ray disc 1080p "http://rutracker.org/forum/viewtopic.php?t=5457967"-Список серий:
1. Качели; 2. Прогулка; 3. Фломастеры; 4. Ракета; 5. Следы;
6. Башня; 7. Красная шапочка; 8. Ёлка; 9. Солнышко; 10. Попрыгушки;
11. Ручейки; 12. Машинка; 13. Прятки; 14. Домики; 15. Ведёрко;
16. На площадке; 17. Самокат; 18. Футбол; 19. Спокойной ночи, Звёздочка; 20. Шмяк;
21. Цветок; 22. Просыпайся; 23. Самолётик; 24. Лошадка; 25. Рыбалка;
26. Мозаика; 27. Ушки; 28. Подружки; 29. Обруч; 30. Стёклышко;
31. Зеленука; 32. Бусики; 33. Сказочка; 34. Сладкоежки; 35. Поехали!;
36. Загадка; 37. Секретик; 38. Труба; 39. Пандочкино море; 40. Считалочка;
41. Вертолёт; 42. Дерево; 43. Шарик; 44. Мишка; 45. Пчёлки;
46. Давай играть!; 47. Печенье; 48. Вертушки; 49. Сюрприз; 50. Магнитик
51. Не скучай!; 52. Колпачок; 53. Сапожки; 54. Гости; 55. Фокус;
56. Книжка; 57. Робот; 58. Чемпионы; 59. Пароход; 60. Ромашка-Качество: BDRemux 1080p
Формат: MKV
Видео: MPEG-4 AVC Video 1920x1080p (16:9), 24 fps, 15400 kbps
Аудио: LPCM Audio Russian 48 kHz, 2 ch, 24 bit, 2304 kbps
Субтитры: отсутствуют

MediaInfo

Общее
Уникальный идентификатор : 18102016637889355209771045846836746382 (0xD9E5253B35E6A57D07380AD8FC2988E)
Полное имя : D:\Малышарики.BDRemux.1080p.mkv
Формат : Matroska
Версия формата : Version 4
Размер файла : 639 Мбайт
Продолжительность : 5 м. 2 с.
Режим общего битрейта : Переменный
Общий поток : 17,7 Мбит/сек
Дата кодирования : UTC 2019-01-10 08:27:19
Программа кодирования : mkvmerge v30.1.0 ('Forever And More') 64-bit
Библиотека кодирования : libebml v1.3.6 + libmatroska v1.4.9
Видео
Идентификатор : 1
Формат : AVC
Формат/Информация : Advanced Video Codec
Профиль формата : High@L4
Настройки формата : CABAC / 2 Ref Frames
Параметр CABAC формата : Да
Параметр RefFrames формата : 2 кадра
Идентификатор кодека : V_MPEG4/ISO/AVC
Продолжительность : 5 м. 2 с.
Вид битрейта : Переменный
Битрейт : 15,4 Мбит/сек
Максимальный битрейт : 22,0 Мбит/сек
Ширина : 1920 пикселей
Высота : 1080 пикселей
Соотношение сторон : 16:9
Режим частоты кадров : Постоянный
Частота кадров : 24,000 кадра/сек
Цветовое пространство : YUV
Субдискретизация насыщенности : 4:2:0
Битовая глубина : 8 бит
Тип развёртки : Прогрессивная
Бит/(Пиксели*Кадры) : 0.310
Размер потока : 555 Мбайт (87%)
Default : Да
Forced : Нет
Аудио
Идентификатор : 2
Формат : PCM
Настройки формата : Little / Signed
Идентификатор кодека : A_PCM/INT/LIT
Продолжительность : 5 м. 2 с.
Вид битрейта : Постоянный
Битрейт : 2304 Кбит/сек
Каналы : 2 канала
Частота : 48,0 КГц
Частота кадров : 200,000 кадров/сек (240 SPF)
Битовая глубина : 24 бит
Размер потока : 83,0 Мбайт (13%)
Язык : Russian
Default : Да
Forced : Нет

Скриншоты




[torrents24.ru].t76501.torrent 
Торрент: Зарегистрирован [ 2019-03-11 18:25 ] · FC96A7E70049CF5E0ACE272F8B4FF6F5C4EF18DF

Скачать .torrent

Скачать

382 KB

Статус: проверено
Скачан: 1 раз
Размер: 37,59 GB
terms.php
[Профиль] [ЛС]
Показать сообщения:    
Ответить на тему

Текущее время: 23-Май 01:47

Часовой пояс: UTC + 3



Вы не можете начинать темы
Вы не можете отвечать на сообщения
Вы не можете редактировать свои сообщения
Вы не можете удалять свои сообщения
Вы не можете голосовать в опросах
Вы не можете прикреплять файлы к сообщениям
Вы можете скачивать файлы

Интересное в сети