Снимай или снимут / Снимай, или буду стрелять / Shoot Or Be Shot (Рэнди Арго / Randy Argo) [2002, США, Комедия, DVDRip] AVO (Евгений Гранкин) + Original Eng

Ответить на тему
 
Автор Сообщение

Ведьмочка ®

Пол: Не указан

Стаж: 1 год 2 месяца

Сообщений: 70

Создавать темы 09-Фев-2019 13:43

[Цитировать]

Снимай или снимут / Shoot Or Be Shot
Страна: США
Жанр: Комедия
Год выпуска: 2002
Продолжительность: 01:30:08
Перевод: Авторский (одноголосый закадровый) Евгений Гранкин
Субтитры: нет
Оригинальная аудиодорожка: английский
Режиссер: Рэнди Арго / Randy Argo
В ролях: Уильям Шатнер, Гарри Хэмлин, Джейм Хили мл., Скотт Ринкер, Маркус Эшли, Лиза Лон
Описание: Он помешан на фильмах!
В этой смешной голливудской сатире Уильям Шатнер играет психически больного пациента Харви Вилкеса, сбежавшего из клиники. Вооруженный пистолетом, он даже не знает, как из него стрелять. После того, как он натыкается на съемочную группу, снимающую фильм в пустыне, Харви берет съемки фильма в свои руки, чтобы сделать его своим собственным…
Доп. информация: За помощь в закачке видеоряда из СГ спасибо xelon2006
Релиз
Сэмпл: https://yadi.sk/i/TI3hDEehsweyF
Качество видео: DVDRip
Формат видео: AVI
Видео: 704x384 (1.83:1), 23.976 fps, XviD MPEG-4 ~2109 kbps avg, 0.33 bit/pixel
Аудио: 48 kHz, AC3 Dolby Digital, 2 ch, ~192.00 kbps avg
Аудио 2: 48 kHz, AC3 Dolby Digital, 2 ch, ~192.00 kbps avg Eng

MediaInfo

Снимай или снимут Shoot or Be Shot (by Edich2) fix.avi
Format : AVI
Format/Info : Audio Video Interleave
File size : 1.58 GiB
Duration : 1h 30mn
Overall bit rate : 2 507 Kbps
Video
ID : 0
Format : MPEG-4 Visual
Format profile : Advanced Simple@L5
Format settings, BVOP : 1
Format settings, QPel : No
Format settings, GMC : No warppoints
Format settings, Matrix : Custom
Codec ID : XVID
Codec ID/Hint : XviD
Duration : 1h 30mn
Bit rate : 2 109 Kbps
Width : 704 pixels
Height : 384 pixels
Display aspect ratio : 1.85:1
Frame rate : 23.976 (23976/1000) fps
Color space : YUV
Chroma subsampling : 4:2:0
Bit depth : 8 bits
Scan type : Progressive
Compression mode : Lossy
Bits/(Pixel*Frame) : 0.325
Stream size : 1.33 GiB (84%)
Writing library : XviD 1.2.1 (UTC 2008-12-04)
Audio #1
ID : 1
Format : AC-3
Format/Info : Audio Coding 3
Mode extension : CM (complete main)
Format settings, Endianness : Big
Codec ID : 2000
Duration : 1h 29mn
Bit rate mode : Constant
Bit rate : 192 Kbps
Channel(s) : 2 channels
Channel positions : Front: L R
Sampling rate : 48.0 KHz
Frame rate : 31.250 fps (1536 spf)
Compression mode : Lossy
Delay relative to video : 6s 500ms
Stream size : 124 MiB (8%)
Alignment : Split accross interleaves
Interleave, duration : 42 ms (1.00 video frame)
Interleave, preload duratio : 500 ms
Audio #2
ID : 2
Format : AC-3
Format/Info : Audio Coding 3
Mode extension : CM (complete main)
Format settings, Endianness : Big
Codec ID : 2000
Duration : 1h 30mn
Bit rate mode : Constant
Bit rate : 192 Kbps
Channel(s) : 2 channels
Channel positions : Front: L R
Sampling rate : 48.0 KHz
Frame rate : 31.250 fps (1536 spf)
Compression mode : Lossy
Stream size : 124 MiB (8%)
Alignment : Split accross interleaves
Interleave, duration : 42 ms (1.00 video frame)
Interleave, preload duratio : 500 ms

Скриншоты


[Профиль] [ЛС]
Показать сообщения:    
Ответить на тему

Текущее время: 21-Апр 01:21

Часовой пояс: UTC + 3



Вы не можете начинать темы
Вы не можете отвечать на сообщения
Вы не можете редактировать свои сообщения
Вы не можете удалять свои сообщения
Вы не можете голосовать в опросах
Вы не можете прикреплять файлы к сообщениям
Вы можете скачивать файлы

Интересное в сети