Статистика раздачи
Размер:  191 MB   |    Зарегистрирован:  13 дней   |    Скачан:  0 раз

Полного источника не было: Никогда

 
   
 
 

99.99 ®

Пол:
Не указан
Стаж:
11 месяцев 16 дней
Сообщений:
496

Hank Crawford - Wildflower- Жанр: Soul Jazz, Crossover Jazz, Jazz-Funk
Год издания диска: 1973
Издатель (лейбл): Epic - Legacy
Номер по каталогу: EK 86144
Страна: US Memphis, TN
Аудиокодек: FLAC (*.flac)
Тип рипа: tracks+.cue
Битрейт аудио: lossless
Продолжительность: 00:31:22
Источник (релизер): www
Наличие сканов в содержимом раздачи: нет
--Hank Crawford - Alto Saxophone
Richard Tee - Piano & Organ
Bob Cranshaw - Bass
Idris Muhammad - Drums
--01. Corazon [06:05]
02. Wildflower [03:19]
03. Mr. Blues [06:06]
04. Youґve Got It Bad Girl [09:41]
05. Good Morning Heartache [06:11]
--Recorded By Rudy Van Gelder At His Recording Studio, Englewood Cliffs, NJ, June 28-29, 1973--

Лог создания рипа

Exact Audio Copy V1.1 from 23. June 2015
EAC extraction logfile from 7. August 2017, 1:47
Hank Crawford / Wildflower
Used drive : TSSTcorpDVD+-RW TS-H653G Adapter: 1 ID: 0
Read mode : Secure
Utilize accurate stream : Yes
Defeat audio cache : Yes
Make use of C2 pointers : No
Read offset correction : 6
Overread into Lead-In and Lead-Out : No
Fill up missing offset samples with silence : Yes
Delete leading and trailing silent blocks : No
Null samples used in CRC calculations : Yes
Used interface : Native Win32 interface for Win NT & 2000
Gap handling : Appended to previous track
Used output format : User Defined Encoder
Selected bitrate : 1024 kBit/s
Quality : High
Add ID3 tag : No
Command line compressor : C:\Program Files (x86)\Exact Audio Copy\Flac\flac.exe
Additional command line options : -8 -e -V -T "ARTIST=%artist%" -T "TITLE=%title%" -T "ALBUM=%albumtitle%" -T "DATE=%year%" -T "TRACKNUMBER=%tracknr%" -T "GENRE=%genre%" -T "PERFORMER=%albuminterpret%" -T "COMPOSER=%composer%" %haslyrics%--tag-from-file=LYRICS="%lyricsfile%"%haslyrics% -T "ALBUMARTIST=%albumartist%" -T "DISCNUMBER=%cdnumber%" -T "TOTALDISCS=%totalcds%" -T "TOTALTRACKS=%numtracks%" -T "COMMENT=%comment%" %source% -o %dest%
TOC of the extracted CD
Track | Start | Length | Start sector | End sector
---------------------------------------------------------
1 | 0:00.00 | 6:03.72 | 0 | 27296
2 | 6:03.72 | 3:57.25 | 27297 | 45096
3 | 10:01.22 | 6:07.53 | 45097 | 72674
4 | 16:09.00 | 9:37.30 | 72675 | 115979
5 | 25:46.30 | 6:07.70 | 115980 | 143574
Track 1
Filename C:\Users\steve\Desktop\Hank Crawford - Wildflower (1973) [FLAC]\01 Corazon.wav
Pre-gap length 0:00:02.00
Peak level 98.7 %
Extraction speed 2.0 X
Track quality 100.0 %
Test CRC 6C93DA3F
Copy CRC 6C93DA3F
Cannot be verified as accurate (confidence 5) [26FFFBB1], AccurateRip returned [10D75FA5] (AR v2)
Copy OK
Track 2
Filename C:\Users\steve\Desktop\Hank Crawford - Wildflower (1973) [FLAC]\02 Wildflower.wav
Pre-gap length 0:00:01.52
Peak level 96.5 %
Extraction speed 2.2 X
Track quality 100.0 %
Test CRC CA5B79AD
Copy CRC CA5B79AD
Cannot be verified as accurate (confidence 5) [CE9D5A75], AccurateRip returned [AD2BFBBC] (AR v2)
Copy OK
Track 3
Filename C:\Users\steve\Desktop\Hank Crawford - Wildflower (1973) [FLAC]\03 Mr. Blues.wav
Pre-gap length 0:00:02.47
Peak level 94.3 %
Extraction speed 2.5 X
Track quality 100.0 %
Test CRC 6A31AC53
Copy CRC 6A31AC53
Cannot be verified as accurate (confidence 5) [BA08F64F], AccurateRip returned [F18A1E44] (AR v2)
Copy OK
Track 4
Filename C:\Users\steve\Desktop\Hank Crawford - Wildflower (1973) [FLAC]\04 You've Got It Bad Girl.wav
Pre-gap length 0:00:02.55
Peak level 99.7 %
Extraction speed 2.9 X
Track quality 100.0 %
Test CRC B7DB9334
Copy CRC B7DB9334
Cannot be verified as accurate (confidence 5) [E6599A04], AccurateRip returned [81A7ADE1] (AR v2)
Copy OK
Track 5
Filename C:\Users\steve\Desktop\Hank Crawford - Wildflower (1973) [FLAC]\05 Good Morning Heartache.wav
Pre-gap length 0:00:02.50
Peak level 99.8 %
Extraction speed 3.1 X
Track quality 100.0 %
Test CRC 7EE23C47
Copy CRC 7EE23C47
Cannot be verified as accurate (confidence 5) [7D810ED6], AccurateRip returned [8F848580] (AR v2)
Copy OK
No tracks could be verified as accurate
You may have a different pressing from the one(s) in the database
No errors occurred
End of status report
---- CUETools DB Plugin V2.1.6
[CTDB TOCID: PBn8vLZVDLTUqghSwvaIt6xdO1Y-] found
Submit result: PBn8vLZVDLTUqghSwvaIt6xdO1Y- has been confirmed
Track | CTDB Status
1 | ( 2/15) Accurately ripped
2 | ( 2/15) Accurately ripped
3 | ( 2/15) Accurately ripped
4 | ( 2/15) Accurately ripped
5 | ( 2/15) Accurately ripped
==== Log checksum 3C3DB8B9EA9B6A8AC2557847DE7AF343F24D736D98D2C4FB3DFBB44F9335FEDD ====

Содержание индексной карты (.CUE)

REM DATE 1973
REM DISCID 3C077A05
REM COMMENT "ExactAudioCopy v1.1"
PERFORMER "Hank Crawford"
TITLE "Wildflower"
FILE "01 Corazon.wav" WAVE
TRACK 01 AUDIO
TITLE "Corazon"
PERFORMER "Hank Crawford"
INDEX 01 00:00:00
TRACK 02 AUDIO
TITLE "Wildflower"
PERFORMER "Hank Crawford"
INDEX 00 06:02:20
FILE "02 Wildflower.wav" WAVE
INDEX 01 00:00:00
TRACK 03 AUDIO
TITLE "Mr. Blues"
PERFORMER "Hank Crawford"
INDEX 00 03:54:53
FILE "03 Mr. Blues.wav" WAVE
INDEX 01 00:00:00
TRACK 04 AUDIO
TITLE "You've Got It Bad Girl"
PERFORMER "Hank Crawford"
INDEX 00 06:04:73
FILE "04 You've Got It Bad Girl.wav" WAVE
INDEX 01 00:00:00
TRACK 05 AUDIO
TITLE "Good Morning Heartache"
PERFORMER "Hank Crawford"
INDEX 00 09:34:55
FILE "05 Good Morning Heartache.wav" WAVE
INDEX 01 00:00:00
[torrents24.ru].t72352.torrent 
Торрент: Зарегистрирован [ 2019-02-02 11:45 ] · D96103D8581F8FE574333F0516509A978FF4800D

Скачать .torrent

Скачать

16 KB

Статус: проверено
Скачан: 0 раз
Размер: 191 MB

Профиль [ЛС]
Показать сообщения:    

Текущее время: 16-Фев 02:02

Часовой пояс: UTC + 3



Вы не можете начинать темы
Вы не можете отвечать на сообщения
Вы не можете редактировать свои сообщения
Вы не можете удалять свои сообщения
Вы не можете голосовать в опросах
Вы не можете прикреплять файлы к сообщениям
Вы можете скачивать файлы