Белая рабыня / La Esclava Blanca / Серии: 62 (Лилиана Боканегра, Матео Стиуэльбер) [2016, колумбия, мелодрама, исторический, WEB-DLRip]

Ответить на тему
Статистика раздачи
Размер:  39,87 GB   |    Зарегистрирован:  3 месяца 28 дней   |    Скачан:  0 раз

Полного источника не было: Никогда

Личеров:  5  [  0 KB/s  ]  
 
   
 
 
Автор Сообщение

Dream ®

Пол: Не указан

Стаж: 1 год 3 месяца

Сообщений: 5

Создавать темы 25-Янв-2019 16:37

[Цитировать]

Белая рабыня / La Esclava Blanca
Год выпуска: 2016
Производство: Caracol Televisión
Жанр: мелодрама, исторический
Продолжительность: 00:42:32
Перевод: профессиональный многоголосый закадровый
Субтитры: отсутствуют

Режиссёр: Лилиана Боканегра, Матео Стиуэльбер
В ролях: Нереа Комачо, Ориан Суарес, Мигель Де Мигель, Модесто Ласен, Норма Мартинес, Рикардо Весга, Вина Мачадо, Андрес Суарес, Мирослава Моралес, Наташа Клаусс, Ана Москера, Мауро Донетти, Лусиано Д’Алессандро, Паола Морено
Описание: Виктория - молодая женщина, приехавшая из Испании якобы для того, чтобы выйти замуж. Но на самом деле она вернулась для того, чтобы восстановить справедливость и освободить семью чернокожих рабов, что спасли ее от смерти в младенчестве, вырастили, но были вынуждены отослать ее в Европу, потому как по закону белая женщина не могла жить с рабами.

Сэмпл
Ссылка на предыдущие и альтернативные раздачи
Качество: WEB-DLRip
Формат: AVI
Видео кодек: XviD
Аудио кодек: AC3
Видео: 704x400 (1.76:1), 25 fps, XviD build 73 ~1999 kbps avg, 0.28 bit/pixel
Аудио: 48 kHz, AC3 Dolby Digital, 2/0 (L,R) ch, ~192 kbps
Реклама: отсутствует

MI

General
Complete name : H:\La.Esclava.Blanca.webrip_[teko]\s01e01.avi
Format : AVI
Format/Info : Audio Video Interleave
File size : 670 MiB
Duration : 42mn 32s
Overall bit rate : 2 202 Kbps
Writing application : VirtualDubMod 1.5.10.3 | www.virtualdub-fr.org || (build 2550/release)
Writing library : VirtualDubMod build 2550/release
Video
ID : 0
Format : MPEG-4 Visual
Format profile : Advanced Simple@L5
Format settings, BVOP : 2
Format settings, QPel : No
Format settings, GMC : No warppoints
Format settings, Matrix : Custom
Codec ID : XVID
Codec ID/Hint : XviD
Duration : 42mn 32s
Bit rate : 2 000 Kbps
Width : 704 pixels
Height : 400 pixels
Display aspect ratio : 16:9
Frame rate : 25.000 fps
Color space : YUV
Chroma subsampling : 4:2:0
Bit depth : 8 bits
Scan type : Progressive
Compression mode : Lossy
Bits/(Pixel*Frame) : 0.284
Stream size : 608 MiB (91%)
Writing library : XviD 73
Audio
ID : 1
Format : AC-3
Format/Info : Audio Coding 3
Mode extension : CM (complete main)
Format settings, Endianness : Big
Codec ID : 2000
Duration : 42mn 32s
Bit rate mode : Constant
Bit rate : 192 Kbps
Channel(s) : 2 channels
Channel positions : Front: L R
Sampling rate : 48.0 KHz
Frame rate : 31.250 fps (1536 spf)
Compression mode : Lossy
Stream size : 58.4 MiB (9%)
Alignment : Split accross interleaves
Interleave, duration : 40 ms (1.00 video frame)
Interleave, preload duratio : 500 ms

Скриншоты

Релиз группы:
--
[torrents24.ru].t72331.torrent 
Торрент: Зарегистрирован [ 2019-01-25 16:40 ] · 5AF465BE6BD167C86127750C04DD3A8BF5E15AE8

Скачать .torrent

Скачать

202 KB

Статус: проверено
Скачан: 0 раз
Размер: 39,87 GB
terms.php
[Профиль] [ЛС]
Показать сообщения:    
Ответить на тему

Текущее время: 23-Май 01:45

Часовой пояс: UTC + 3



Вы не можете начинать темы
Вы не можете отвечать на сообщения
Вы не можете редактировать свои сообщения
Вы не можете удалять свои сообщения
Вы не можете голосовать в опросах
Вы не можете прикреплять файлы к сообщениям
Вы можете скачивать файлы

Интересное в сети