Племяшка / Серии: 1-4 из 4 / (Александр Итыгилов (младший)) [2014, детектив, мелодрама, WEBRip]

Ответить на тему
Статистика раздачи
Размер:  2,07 GB   |    Зарегистрирован:  2 месяца 26 дней   |    Скачан:  0 раз

Полного источника не было: Никогда

Личеров:  6  [  0 KB/s  ]  
 
   
 
 
Автор Сообщение

АААааа ®

Пол: Не указан

Стаж: 1 год 1 месяц

Сообщений: 205

Создавать темы 25-Янв-2019 16:37

[Цитировать]

Племяшка- Год выпуска: 2014
Производство: «Компания ABC Film, студия Телемастер»
Жанр: Детектив, мелодрама
Продолжительность: ~ 43 мин.
Субтитры: Отсутствуют-Режиссер: Александр Итыгилов (младший)-В ролях: Дарья Плахтий, Михаил Пшеничный, Евгений Пронин, Анатолий Котенёв, Анна Легчилова, Фёдор Гуринец, Никита Пархоменко, Виктор Рябов, Анастасия Бунина, Елена Светлицкая, Ольга Матешко, Александр Итыгилов (младший), Дария Боцманова, Андрей Дебрин, Михаил Кукуюк, Никита Андриевский, Ирина Калашникова, Саак Дурян, Виктор Швец, Валентина Пугачёва (II), Ирина Мельник, Сергей Романюк, Юрий Яковлев-Суханов, Максим Волынец и др.-Описание: Фильм о событии, перевернувшем благополучную жизнь семьи Шалимовых: крупного бизнесмена Юрия, его жены Людмилы, сына Дмитрия и дочери Татьяны. Некогда Шалимовы-старшие цинично отвергли невесту сына – провинциальную девушку Юлю, уготовив ему в жены Олю Гладышеву, дочь друзей и компаньонов. Спешный отъезд Юли, ожидавшей, как оказалось, ребенка, перевернул и поломал жизнь семьи, перечеркнув все планы Диминых родителей. Не смирившись с потерей любимой, Дима поехал на поиски сбежавшей девушки и вскоре погиб в автомобильной аварии. Людмила Шалимова пережила сына всего на год. Подкосило случившееся и Юрия Шалимова, но он продолжил работу и максимально постарался оградить от потрясений 15-летнюю на тот момент Таню, учившуюся в Англии.
По прошествии семи лет с тех роковых событий Шалимов попадает в больницу и понимает, что дни его, возможно, уже сочтены. Спешно вызванную из Англии Таню, перспективного дизайнера одежды, отец просит об одолжении. Точнее, это просьба, которая может оказаться судьбоносной для некогда мощной семьи Шалимовых. Таня должна отыскать Юлю и её ребенка, продолжение рода! Юрий Шалимов даже не знает, кто у него родился 7 лет назад, внук или внучка. Таня начинает поиски «племяшки». Она не знает, что, чуя слабость одряхлевшего льва Шалимова, множество стервятников уже готовы разодрать его империю на части, и ни Таня, ни таинственный малолетний «наследник» им не нужны...
-
Релиз группы -Все раздачи сериала
Семпл
Кино-Театр-Качество: WEBRip
Формат: AVI
Видео кодек: XviD
Аудио кодек: AC3
Видео: 720x400 (1.80:1), 25 fps, XviD build 73 ~1502 kbps avg, 0.21 bit/pixel
Аудио: 44.100 kHz, AC3 Dolby Digital, 2/0 (L,R) ch, ~192.00 kbps avg

MediaInfo

Код:General
Complete name : D:\Племяшка\Plemyashka.s01e01.2014.WEBRip.RG.Russkie.serialy.avi
Format : AVI
Format/Info : Audio Video Interleave
File size : 528 MiB
Duration : 43mn 18s
Overall bit rate : 1 704 Kbps
Writing application : VirtualDubMod 1.5.10.3 | www.virtualdub-fr.org || (build 2550/release)
Writing library : VirtualDubMod build 2550/release
Video
ID : 0
Format : MPEG-4 Visual
Format profile : Advanced Simple@L5
Format settings, BVOP : 2
Format settings, QPel : No
Format settings, GMC : No warppoints
Format settings, Matrix : Custom
Codec ID : XVID
Codec ID/Hint : XviD
Duration : 43mn 18s
Bit rate : 1 502 Kbps
Width : 720 pixels
Height : 400 pixels
Display aspect ratio : 16:9
Frame rate : 25.000 fps
Color space : YUV
Chroma subsampling : 4:2:0
Bit depth : 8 bits
Scan type : Progressive
Compression mode : Lossy
Bits/(Pixel*Frame) : 0.209
Stream size : 465 MiB (88%)
Writing library : XviD 73
Audio
ID : 1
Format : AC-3
Format/Info : Audio Coding 3
Mode extension : CM (complete main)
Format settings, Endianness : Big
Codec ID : 2000
Duration : 43mn 18s
Bit rate mode : Constant
Bit rate : 192 Kbps
Channel(s) : 2 channels
Channel positions : Front: L R
Sampling rate : 44.1 KHz
Bit depth : 16 bits
Compression mode : Lossy
Stream size : 59.5 MiB (11%)
Alignment : Split accross interleaves
Interleave, duration : 40 ms (1.00 video frame)
Interleave, preload duration : 500 ms

Скриншоты








СравнениеСравнение с этой раздачей http://rutracker.org/forum/viewtopic.php?t=4870245
http://screenshotcomparison.com/comparison/127684/picture:7
[torrents24.ru].t72309.torrent 
Торрент: Зарегистрирован [ 2019-01-25 16:40 ] · 4ACB3E22F839AE961A6084E57D52E5EDEE24E0AE

Скачать .torrent

Скачать

11 KB

Статус: проверено
Скачан: 0 раз
Размер: 2,07 GB
terms.php
[Профиль] [ЛС]
Показать сообщения:    
Ответить на тему

Текущее время: 21-Апр 01:26

Часовой пояс: UTC + 3



Вы не можете начинать темы
Вы не можете отвечать на сообщения
Вы не можете редактировать свои сообщения
Вы не можете удалять свои сообщения
Вы не можете голосовать в опросах
Вы не можете прикреплять файлы к сообщениям
Вы можете скачивать файлы

Интересное в сети