Статистика раздачи
Размер:  349 MB   |    Зарегистрирован:  21 день   |    Скачан:  0 раз

Полного источника не было: Никогда

 
   
 
 

Domino ®

Пол:
Не указан
Стаж:
1 год
Сообщений:
717

Деррик / Derrick
Год выпуска: 1983
Страна: ФРГ
Жанр: детектив
Продолжительность: 00:59:43
Перевод: Субтитры rjym3
Режиссёр: Альфред Вайденман / Alfred Weidenmann
В ролях: Хорст Тапперт: старший инспектор Деррик
Фриц Веппер: инспектор Кляйн
Вилли Шефер: Бергер
Ули Майер: Анне-Мари Рудольф
Соня Суттер: мать Анне-Мари Рудольф
Кристиана Крюгер: Мария Диссман
Хорст Франк: Кабек
Хорст Бухгольц: так называемый муж Марии Диссман
Свен-Эрик Бехтольф: Инго Райц
Пауль Дальке: дед Анне-Мари Рудольф
Описание:
В общем списке серия 100 Die Tote in der Isar
Очень поучительная история о том, к чему приводит безделье в комбинации с прекраснодушными иллюзиями и тепличными условиями воспитания.
В очень доходчивой форме объясняется, почему не стоит связываться с "метросексуалами" , от которых за километр воняет гомосятиной, а источник доходов неясен.
Доп. информация:
Русские субтитры в полном объеме - rjym3
Переведены с норвежских субтитров, предоставленных ув. Варфаломей09
Владеющие укр. языком или свободно понимающие его, могут посмотреть сюда:

УКР

укр.звук: https://cloud.mail.ru/public/NKh2/vv9H3J7q1
В начале оторваны 4 минуты. Идет звук оригинала.
Субтитры на этот фрагмент: https://cloud.mail.ru/public/JcrE/X8GaaS6DB
Сэмпл: http://multi-up.com/1221071
Качество: DVDRip-AVC
Формат: MP4
Видео: AVC, 576х432, 4:3, 682 Kbps, 25.000 fps
Аудио: AAC, 128 Kbps, 44.1 KHz, 2 channels, Front: L R
Субтитры: русские .srt
Реклама:
отсутствует

Список серий

Деррик. Сезон 10 серия 2. В общем списке серия 100. Труп в Изаре (Die Tote in der Isar)

MediaInfo

General
Complete name : F:\Derrick 100\Derrick - 100. Die Tote in der Isar.mp4
Format : MPEG-4
Format profile : Base Media
Codec ID : isom
File size : 349 MiB
Duration : 59mn 43s
Overall bit rate : 816 Kbps
Writing application : Lavf57.83.100
Video
ID : 1
Format : AVC
Format/Info : Advanced Video Codec
Format profile : High@L3.1
Format settings, CABAC : Yes
Format settings, ReFrames : 2 frames
Codec ID : avc1
Codec ID/Info : Advanced Video Coding
Duration : 59mn 43s
Duration_LastFrame : -10ms
Bit rate mode : Variable
Bit rate : 682 Kbps
Width : 576 pixels
Height : 432 pixels
Display aspect ratio : 4:3
Frame rate mode : Constant
Frame rate : 25.000 fps
Color space : YUV
Chroma subsampling : 4:2:0
Bit depth : 8 bits
Scan type : Progressive
Bits/(Pixel*Frame) : 0.110
Stream size : 291 MiB (84%)
Audio
ID : 2
Format : AAC
Format/Info : Advanced Audio Codec
Format profile : LC
Codec ID : 40
Duration : 59mn 43s
Bit rate mode : Constant
Bit rate : 128 Kbps
Channel(s) : 2 channels
Channel positions : Front: L R
Sampling rate : 44.1 KHz
Compression mode : Lossy
Stream size : 54.7 MiB (16%)

Скриншоты

Предыдущие и альтернативные раздачи
[torrents24.ru].t72225.torrent 
Торрент: Зарегистрирован [ 2019-01-25 16:40 ] · 9B0999F0151D349167972DBB64B6442DABFA98DC

Скачать .torrent

Скачать

14 KB

Статус: проверено
Скачан: 0 раз
Размер: 349 MB

Профиль [ЛС]
Показать сообщения:    

Текущее время: 16-Фев 02:04

Часовой пояс: UTC + 3



Вы не можете начинать темы
Вы не можете отвечать на сообщения
Вы не можете редактировать свои сообщения
Вы не можете удалять свои сообщения
Вы не можете голосовать в опросах
Вы не можете прикреплять файлы к сообщениям
Вы можете скачивать файлы