Безумный Новый год / Crazy New Year's Eve (Ева Цзинь / Eva Jin, Пань Аньцзы / Pan Anzi, Ди Сун / Di Song, Цзяжуй Чжан / Jiarui Zhang) [2015, Китай, драма, BDRip 720p] VO (Asian Miracle Group) + DVO (Karipso, Адриан) + Sub (Eng, Zho) + Original (Zho)

Ответить на тему
Статистика раздачи
Размер:  4,71 GB   |    Зарегистрирован:  5 месяцев   |    Скачан:  0 раз

Полного источника не было: Никогда

Личеров:  6  [  0 KB/s  ]  
 
   
 
 
Автор Сообщение

kex ®

Пол: Не указан

Стаж: 1 год 4 месяца

Сообщений: 9

Создавать темы 25-Янв-2019 16:39

[Цитировать]

Безумный Новый год
Crazy New Year's Eve

Страна: Китай
Жанр: драма
Год выпуска: 2015
Продолжительность: 01:49:20
Перевод:
  • Одноголосый закадровый Asian Miracle Group // Перевод: ФСГ 'Full House'
  • Любительский (двухголосый закадровый) Karipso и Адриан // Перевод: ФСГ 'Full House'
    Субтитры: английские, китайские
    Оригинальная аудиодорожка: китайский
    Режиссер: Ева Цзинь / Eva Jin, Пань Аньцзы / Pan Anzi, Ди Сун / Di Song, Цзяжуй Чжан / Jiarui Zhang
    В ролях: Джэм Сяо, Эмбер Ко, Ридиан Вон, Гордон Лам, Лени Лан, Кань Цинцзы, Мэй Тин, Ся Юй
    Описание:
    До Нового года осталось всего несколько часов, но далеко не все застыли в ожидании праздника. Компания подростков застревает в пути с курорта. Состоятельный бизнесмен вынужден ехать домой на поезде, с «простым людом». Девушка ждет своего давнего возлюбленного, надеясь, что тот сделает ей наконец предложение. Большая семья провожает умирающего патриарха и потихоньку ссорится, решая, что делать с квартирой, в которой тот жил. Суперзвезда опаздывает на новогодний концерт, потому что его жена рожает, и вынужден выбирать, что ему важнее. Двое полицейских караулят преступника у дома его бабушки – тот всегда приезжает проведать старушку на Новый год. (c) asiapoisk
    - Релиз группы: -Тип релиза: BDRip 720p (рип от PG13@EPiC)
    Контейнер: MKV
    Видео: AVC (x264), 1280x536 (2.40:1) at 24,000 fps, 5023 Кbps, 0.305 bpp
    Аудио 1: AC3; 192 Kbps; CBR; 2 ch; 48 khz | VO - Asian Miracle Group |
    Аудио 2: AC3; 192 Kbps; CBR; 2 ch; 48 khz | DVO - Karipso, Адриан |
    Аудио 3: AC3; 640 Kbps; CBR; 6 ch; 48 khz | Китайский |
    Формат субтитров: softsub (SRT); PGS

    Скриншоты || x264 Info || MediaInfo || Notes

    MediaInfo

    Код:General
    Unique ID : 236913041847222627018714264935411628382 (0xB23BCACA677AB1199CDF73F223A2395E)
    Complete name : Безумный Новый год.2015.DVO.720p.BluRay.x264-EPiC.mkv
    Format : Matroska
    Format version : Version 4
    File size : 4.71 GiB
    Duration : 1 h 49 min
    Overall bit rate : 6 169 kb/s
    Movie name : Crazy New Year's Eve [2015] [720p] VO, DVO
    Encoded date : UTC 2019-01-15 12:12:05
    Writing application : mkvmerge v7.8.0 ('River Man') 32bit built on Mar 27 2015 16:18:02
    Writing library : libebml v1.3.1 + libmatroska v1.4.2
    DIRECTOR : Eva Jin, Anzi Pan, Di Song, Jiarui Zhang
    GENRE : Drama
    IMDB : tt4481934
    KEYWORDS : rutracker.org , RG Orient Extreme Films , profile.php?mode=viewprofile&u=22488948
    Video
    ID : 1
    Format : AVC
    Format/Info : Advanced Video Codec
    Format profile : High@L4.1
    Format settings : CABAC / 12 Ref Frames
    Format settings, CABAC : Yes
    Format settings, RefFrames : 12 frames
    Codec ID : V_MPEG4/ISO/AVC
    Duration : 1 h 49 min
    Bit rate : 5 023 kb/s
    Width : 1 280 pixels
    Height : 536 pixels
    Display aspect ratio : 2.40:1
    Frame rate mode : Constant
    Frame rate : 24.000 FPS
    Color space : YUV
    Chroma subsampling : 4:2:0
    Bit depth : 8 bits
    Scan type : Progressive
    Bits/(Pixel*Frame) : 0.305
    Stream size : 3.84 GiB (81%)
    Title : 720p @ PG13 @ EPiC
    Writing library : x264 core 142 r2431+42 c69a006 tMod [8-bit@all X86_64]
    Encoding settings : cabac=1 / ref=12 / deblock=1:-3:-3 / analyse=0x3:0x133 / me=umh / subme=11 / psy=1 / fade_compensate=0.00 / psy_rd=1.05:1.00 / mixed_ref=1 / me_range=32 / chroma_me=1 / trellis=2 / 8x8dct=1 / cqm=0 / deadzone=21,11 / fast_pskip=0 / chroma_qp_offset=-4 / threads=12 / lookahead_threads=2 / sliced_threads=0 / nr=0 / decimate=0 / interlaced=0 / bluray_compat=0 / constrained_intra=0 / fgo=0 / bframes=8 / b_pyramid=2 / b_adapt=2 / b_bias=0 / direct=3 / weightb=1 / open_gop=0 / weightp=2 / keyint=240 / keyint_min=24 / scenecut=40 / intra_refresh=0 / rc_lookahead=60 / rc=crf / mbtree=0 / crf=17.5000 / qcomp=0.60 / qpmin=0:0:0 / qpmax=69:69:69 / qpstep=4 / vbv_maxrate=40000 / vbv_bufsize=30000 / crf_max=0.0 / nal_hrd=none / filler=0 / ip_ratio=1.40 / pb_ratio=1.30 / aq=1:1.00 / aq-sensitivity=10.00 / aq-factor=1.00:1.00:1.00 / aq2=0 / aq3=0
    Language : Chinese
    Default : Yes
    Forced : No
    Audio #1
    ID : 2
    Format : AC-3
    Format/Info : Audio Coding 3
    Commercial name : Dolby Digital
    Codec ID : A_AC3
    Duration : 1 h 49 min
    Bit rate mode : Constant
    Bit rate : 192 kb/s
    Channel(s) : 2 channels
    Channel layout : L R
    Sampling rate : 48.0 kHz
    Frame rate : 31.250 FPS (1536 SPF)
    Bit depth : 16 bits
    Compression mode : Lossy
    Stream size : 150 MiB (3%)
    Title : VO [Тори Сенсэй / Asian Miracle Group]
    Language : Russian
    Service kind : Complete Main
    Default : Yes
    Forced : No
    Audio #2
    ID : 3
    Format : AC-3
    Format/Info : Audio Coding 3
    Commercial name : Dolby Digital
    Codec ID : A_AC3
    Duration : 1 h 49 min
    Bit rate mode : Constant
    Bit rate : 192 kb/s
    Channel(s) : 2 channels
    Channel layout : L R
    Sampling rate : 48.0 kHz
    Frame rate : 31.250 FPS (1536 SPF)
    Bit depth : 16 bits
    Compression mode : Lossy
    Stream size : 150 MiB (3%)
    Title : DVO [Karipso, Адриан]
    Language : Russian
    Service kind : Complete Main
    Default : No
    Forced : No
    Audio #3
    ID : 4
    Format : AC-3
    Format/Info : Audio Coding 3
    Commercial name : Dolby Digital
    Codec ID : A_AC3
    Duration : 1 h 49 min
    Bit rate mode : Constant
    Bit rate : 640 kb/s
    Channel(s) : 6 channels
    Channel layout : L R C LFE Ls Rs
    Sampling rate : 48.0 kHz
    Frame rate : 31.250 FPS (1536 SPF)
    Bit depth : 16 bits
    Compression mode : Lossy
    Stream size : 501 MiB (10%)
    Language : Chinese
    Service kind : Complete Main
    Default : No
    Forced : No
    Text #1
    ID : 5
    Format : UTF-8
    Codec ID : S_TEXT/UTF8
    Codec ID/Info : UTF-8 Plain Text
    Title : bluray
    Language : English
    Default : No
    Forced : No
    Text #2
    ID : 6
    Format : PGS
    Muxing mode : zlib
    Codec ID : S_HDMV/PGS
    Codec ID/Info : Picture based subtitle format used on BDs/HD-DVDs
    Title : CHS
    Language : Chinese
    Default : No
    Forced : No
    Text #3
    ID : 7
    Format : PGS
    Muxing mode : zlib
    Codec ID : S_HDMV/PGS
    Codec ID/Info : Picture based subtitle format used on BDs/HD-DVDs
    Title : CHT
    Language : Chinese
    Default : No
    Forced : No
    Text #4
    ID : 8
    Format : PGS
    Muxing mode : zlib
    Codec ID : S_HDMV/PGS
    Codec ID/Info : Picture based subtitle format used on BDs/HD-DVDs
    Title : bluray
    Language : English
    Default : No
    Forced : No
    Menu
    00:00:00.000 : en:Chapter 1
    00:03:40.041 : en:Chapter 2
    00:08:04.125 : en:Chapter 3
    00:14:05.625 : en:Chapter 4
    00:19:27.125 : en:Chapter 5
    00:24:11.666 : en:Chapter 6
    00:28:56.041 : en:Chapter 7
    00:35:41.250 : en:Chapter 8
    00:40:24.125 : en:Chapter 9
    00:45:16.666 : en:Chapter 10
    00:50:49.666 : en:Chapter 11
    00:55:23.291 : en:Chapter 12
    01:00:18.208 : en:Chapter 13
    01:05:40.625 : en:Chapter 14
    01:11:12.375 : en:Chapter 15
    01:15:34.500 : en:Chapter 16
    01:22:58.333 : en:Chapter 17
    01:29:48.958 : en:Chapter 18
    01:35:16.791 : en:Chapter 19
    01:44:07.791 : en:Chapter 20

    x264 Info

    [box=#F5F5F5,#F5F5F5]x264 [info]: frame I:1953 Avg QP:15.64 size: 96406[/box]x264 [info]: frame P:35203 Avg QP:18.19 size: 50758x264 [info]: frame B:120289 Avg QP:19.47 size: 18289x264 [info]: consecutive B-frames: 3.4% 4.0% 8.0% 14.8% 10.8% 53.5% 3.1% 0.6% 1.7%
    Цитата:[box=#F5F5F5,#F5F5F5] Asian Miracle Group - озвучивала: Тори Сенсэй[/box]
    [torrents24.ru].t72194.torrent 
    Торрент: Зарегистрирован [ 2019-01-25 16:40 ] · 3765B7F0C8E4736B95EC326A9FC0310E40A236BE

    Скачать .torrent

    Скачать

    12 KB

    Статус: проверено
    Скачан: 0 раз
    Размер: 4,71 GB
    terms.php
  • [Профиль] [ЛС]
    Показать сообщения:    
    Ответить на тему

    Текущее время: 26-Июн 09:02

    Часовой пояс: UTC + 3



    Вы не можете начинать темы
    Вы не можете отвечать на сообщения
    Вы не можете редактировать свои сообщения
    Вы не можете удалять свои сообщения
    Вы не можете голосовать в опросах
    Вы не можете прикреплять файлы к сообщениям
    Вы можете скачивать файлы

    Интересное в сети