Ёлки Последние (Тимур Бекмамбетов, Егор Баранов, Анна Пармас) [2018, комедия, WEB-DLRip]

Ответить на тему
Статистика раздачи
Размер:  1,46 GB   |    Зарегистрирован:  2 месяца 27 дней   |    Скачан:  1 раз

Полного источника не было: 2 месяца 3 дня

Личеров:  6  [  0 KB/s  ]  
 
   
 
 
Автор Сообщение

Болт ®

Пол: Не указан

Стаж: 1 год 2 месяца

Сообщений: 101

Создавать темы 24-Янв-2019 16:38

[Цитировать]

Ёлки Последние
Страна: Россия
Жанр: комедия
Год выпуска: 2018
Продолжительность: 01:36:37
Субтитры: нет-Режиссер: Тимур Бекмамбетов, Егор Баранов, Анна Пармас-В ролях: Иван Ургант, Сергей Светлаков, Дмитрий Нагиев, Елена Яковлева, Юлия Александрова, Даниил Вахрушев, Александр Головин, Александр Домогаров мл., Юрий Кузнецов, Марк Богатырев-Описание: «Ёлки Последние» станут самыми трогательными, добрыми и волшебными из всех, потому что любимые герои будут прощаться со зрителями. В киноальманах войдет пять новогодних историй. В новелле «Сосны» миллениал поможет своему брутальному отчиму дяде Юре сделать предложение руки и сердца. В «Братьях» неразлучные друзья Боря и Женя вновь окажутся на грани расставания, потому что Женя собирается вернуться в Якутск. Лыжник и сноубордист перевернут весь город ради улыбки одной красавицы в новелле «Ресторан быстрого знакомства». «Вокзал на троих» расскажет историю о простой девушке из Воронежа, отправившейся в погоню за своим счастьем - столичным актером Комаровским, а в новелле «Вредный дедушка» Снегурочка поедет спасать одинокого, но очень ворчливого дедушку.- -Качество видео: WEB-DLRip
Формат видео: AVI
Видео: 720x304 (2.37:1), 24.000 fps, XviD build 73 ~1767 kbps avg, 0.34 bit/pixel
Аудио: 48 kHz, AC3 Dolby Digital, 3/2 (L,C,R,l,r) + LFE ch, ~384 kbps - iTunes-[box]Сэмпл[/box]-

MediaInfo

Код:Формат : AVI
Формат/Информация : Audio Video Interleave
Размер файла : 1,46 Гбайт
Продолжительность : 1 ч. 36 м.
Общий поток : 2161 Кбит/сек
Программа кодирования : VirtualDubMod 1.5.10.3 | www.virtualdub-fr.org || (build 2550/release)
Библиотека кодирования : VirtualDubMod build 2550/release
Видео
Идентификатор : 0
Формат : MPEG-4 Visual
Профиль формата : Advanced Simple@L5
Настройки формата : BVOP1 / Custom Matrix
Параметр BVOP формата : 1
Параметр QPel формата : Нет
Параметр GMC формата : Без точки перехода
Параметр матрицы формата : Выборочная
Идентификатор кодека : XVID
Идентификатор кодека/Подсказка : XviD
Продолжительность : 1 ч. 36 м.
Битрейт : 1767 Кбит/сек
Ширина : 720 пикселей
Высота : 304 пикселя
Соотношение сторон : 2,35:1
Частота кадров : 24,000 кадра/сек
Цветовое пространство : YUV
Субдискретизация насыщенности : 4:2:0
Битовая глубина : 8 бит
Тип развёртки : Прогрессивная
Метод сжатия : С потерями
Бит/(Пиксели*Кадры) : 0.336
Размер потока : 1,19 Гбайт (82%)
Библиотека кодирования : XviD 73
Аудио
Идентификатор : 1
Формат : AC-3
Формат/Информация : Audio Coding 3
Коммерческое название : Dolby Digital
Идентификатор кодека : 2000
Продолжительность : 1 ч. 36 м.
Вид битрейта : Постоянный
Битрейт : 384 Кбит/сек
Каналы : 6 каналов
Channel layout : L R C LFE Ls Rs
Частота : 48,0 КГц
Частота кадров : 31,250 кадров/сек (1536 SPF)
Битовая глубина : 16 бит
Метод сжатия : С потерями
Размер потока : 265 Мбайт (18%)
Выравнивание : Разделение по промежуткам
Продолжительность промежутка : 42 мс. (1,00 видеокадр)
Время предзагрузки промежутка : 500 мс.
ServiceKind/String : Complete Main

Скриншоты


[torrents24.ru].t72154.torrent 
Торрент: Зарегистрирован [ 2019-01-24 16:40 ] · 7EBE317332EE421F599466933ED11E60CA53F059

Скачать .torrent

Скачать

15 KB

Статус: проверено
Скачан: 1 раз
Размер: 1,46 GB
terms.php
[Профиль] [ЛС]
Показать сообщения:    
Ответить на тему

Текущее время: 21-Апр 01:08

Часовой пояс: UTC + 3



Вы не можете начинать темы
Вы не можете отвечать на сообщения
Вы не можете редактировать свои сообщения
Вы не можете удалять свои сообщения
Вы не можете голосовать в опросах
Вы не можете прикреплять файлы к сообщениям
Вы можете скачивать файлы

Интересное в сети