(Jazz | Jazz Rock) Андрей Макаревич & Yo5 - Yo5 - 2018, WavPack (iso.wv), lossless

Ответить на тему
Статистика раздачи
Размер:  328 MB   |    Зарегистрирован:  2 месяца 30 дней   |    Скачан:  2 раза

Полного источника не было: 1 месяц 11 дней

Личеров:  3  [  0 KB/s  ]  
 
   
 
 
Автор Сообщение

leprikon ®

Пол: Не указан

Стаж: 1 год 1 месяц

Сообщений: 1

Создавать темы 23-Янв-2019 16:58

[Цитировать]

Андрей Макаревич & Yo5Yo5



• Жанр: Jazz
• Страна исполнителя: RF
• Год издания: 2018
• Аудиокодек: WavPack (*.wv)
• Тип рипа: iso.wv
• Продолжительность: 00:48:03
• Наличие сканов: all
• Источник (релизер): NL+

01 - Эпоха большой нелюбви (00:05:36)
02 - Я рисую тебя (00:04:18)
03 - Она идёт по жизни смеясь (00:03:20)
04 - Паузы (00:04:11)
05 - Старый корабль (00:03:17)
06 - Перекрёсток (00:05:57)
07 - Картонные крылья любви (00:06:14)
08 - Однажды мир прогнётся под нас (00:08:17)
09 - Пора в обратный путь (00:06:50)

• Cue •

REM GENRE "Jazz"
REM DATE 2018
REM DISCID 900B4509
REM COMMENT "ExactAudioCopy v1.3"
REM COMPOSER ""
PERFORMER "Yo5 и Андрей Макаревич"
TITLE "Yo5"
FILE "Yo5 i Andrej Makarevich - 2018 - Yo5.wv" WAVE
TRACK 01 AUDIO
TITLE "Эпоха большой нелюбви"
PERFORMER "Yo5 и Андрей Макаревич"
REM COMPOSER ""
INDEX 01 00:00:00
TRACK 02 AUDIO
TITLE "Я рисую тебя"
PERFORMER "Yo5 и Андрей Макаревич"
REM COMPOSER ""
INDEX 00 05:35:49
INDEX 01 05:37:19
TRACK 03 AUDIO
TITLE "Она идёт по жизни смеясь"
PERFORMER "Yo5 и Андрей Макаревич"
REM COMPOSER ""
INDEX 00 09:53:69
INDEX 01 09:56:13
TRACK 04 AUDIO
TITLE "Паузы"
PERFORMER "Yo5 и Андрей Макаревич"
REM COMPOSER ""
INDEX 00 13:14:71
INDEX 01 13:16:15
TRACK 05 AUDIO
TITLE "Старый корабль"
PERFORMER "Yo5 и Андрей Макаревич"
REM COMPOSER ""
INDEX 00 17:26:72
INDEX 01 17:27:40
TRACK 06 AUDIO
TITLE "Перекрёсток"
PERFORMER "Yo5 и Андрей Макаревич"
REM COMPOSER ""
INDEX 00 20:43:29
INDEX 01 20:45:12
TRACK 07 AUDIO
TITLE "Картонные крылья любви"
PERFORMER "Yo5 и Андрей Макаревич"
REM COMPOSER ""
INDEX 00 26:38:36
INDEX 01 26:42:07
TRACK 08 AUDIO
TITLE "Однажды мир прогнётся под нас"
PERFORMER "Yo5 и Андрей Макаревич"
REM COMPOSER ""
INDEX 00 32:55:55
INDEX 01 32:55:69
TRACK 09 AUDIO
TITLE "Пора в обратный путь"
PERFORMER "Yo5 и Андрей Макаревич"
REM COMPOSER ""
INDEX 00 41:11:48
INDEX 01 41:13:10
-

• Лог создания рипа •

Exact Audio Copy V1.3 from 2. September 2016
EAC extraction logfile from 5. December 2018, 19:43
Yo5 и Андрей Макаревич / Yo5
Used drive : hp DVDRAM GT31L Adapter: 1 ID: 0
Read mode : Secure
Utilize accurate stream : Yes
Defeat audio cache : Yes
Make use of C2 pointers : No
Read offset correction : 103
Overread into Lead-In and Lead-Out : No
Fill up missing offset samples with silence : Yes
Delete leading and trailing silent blocks : No
Null samples used in CRC calculations : Yes
Used interface : Native Win32 interface for Win NT & 2000
Used output format : User Defined Encoder
Selected bitrate : 896 kBit/s
Quality : High
Add ID3 tag : No
Command line compressor : C:\Program Files (x86)\Exact Audio Copy\wavpack.exe
Additional command line options : -hlm %source%
TOC of the extracted CD
Track | Start | Length | Start sector | End sector
---------------------------------------------------------
1 | 0:00.00 | 5:37.19 | 0 | 25293
2 | 5:37.19 | 4:18.69 | 25294 | 44712
3 | 9:56.13 | 3:20.02 | 44713 | 59714
4 | 13:16.15 | 4:11.25 | 59715 | 78564
5 | 17:27.40 | 3:17.47 | 78565 | 93386
6 | 20:45.12 | 5:56.70 | 93387 | 120156
7 | 26:42.07 | 6:13.62 | 120157 | 148193
8 | 32:55.69 | 8:17.16 | 148194 | 185484
9 | 41:13.10 | 6:52.22 | 185485 | 216406
Range status and errors
Selected range
Filename C:\Yo5 и Андрей Макаревич - Yo5.wav
Peak level 99.3 %
Extraction speed 2.0 X
Range quality 99.9 %
Copy CRC 7FE81F6A
Copy OK
No errors occurred
AccurateRip summary
Track 1 not present in database
Track 2 not present in database
Track 3 not present in database
Track 4 not present in database
Track 5 not present in database
Track 6 not present in database
Track 7 not present in database
Track 8 not present in database
Track 9 not present in database
None of the tracks are present in the AccurateRip database
End of status report
---- CUETools DB Plugin V2.1.6
[CTDB TOCID: yOe7JWoxzvwD1FwJTQrFUBG42Co-] disk not present in database
Submit result: yOe7JWoxzvwD1FwJTQrFUBG42Co- has been uploaded
-

Перечень файлов

. [DIRECTORY]
.. [DIRECTORY]
Back.jpg [440 KB]
CD.jpg [218 KB]
Checkers [DIRECTORY]
Front.jpg [517 KB]
JamClub. JamCD 0001.sig [0 Bytes]
scans [DIRECTORY]
Yo5 i Andrej Makarevich - 2018 - Yo5.log [4 KB]
Yo5 i Andrej Makarevich - 2018 - Yo5.wv [282 MB]
Yo5 i Andrej Makarevich - 2018 - Yo5.wv.cue [1 KB]
-----------------------------------------Checkers-----------------------------------------
. [DIRECTORY]
.. [DIRECTORY]
Matrix.png [943 KB]
Spectrum.png [157 KB]
tau.png [24 KB]
Wawe.png [22 KB]
Yo5 i Andrej Makarevich - 2018 - Yo5.accurip [633 Bytes]
------------------------------------------scans------------------------------------------
. [DIRECTORY]
.. [DIRECTORY]
Back.jpg [9 MB]
CD.jpg [1 MB]
front-inlay.jpg [10 MB]
Front.jpg [11 MB]
inside.jpg [7 MB]
Matrix.jpg [1 MB]
[torrents24.ru].t72032.torrent 
Торрент: Зарегистрирован [ 2019-01-23 17:00 ] · 8CF91F5CA1A73B33A19A424513DF59AA9C0E6631

Скачать .torrent

Скачать

13 KB

Статус: проверено
Скачан: 2 раз
Размер: 328 MB
terms.php
[Профиль] [ЛС]
Показать сообщения:    
Ответить на тему

Текущее время: 23-Апр 02:53

Часовой пояс: UTC + 3



Вы не можете начинать темы
Вы не можете отвечать на сообщения
Вы не можете редактировать свои сообщения
Вы не можете удалять свои сообщения
Вы не можете голосовать в опросах
Вы не можете прикреплять файлы к сообщениям
Вы можете скачивать файлы
buy cheap viagra online

Интересное в сети