Black Eyed Peas • 20 Years of Black Eyed Peas [2018, R'n'B, Hip-Hop, Pop, HDTV, 1080i]

Ответить на тему
Статистика раздачи
Размер:  3,7 GB   |    Зарегистрирован:  4 месяца 4 дня   |    Скачан:  0 раз

Полного источника не было: Никогда

Личеров:  5  [  0 KB/s  ]  
 
   
 
 
Автор Сообщение

Alex ®

Пол: Не указан

Стаж: 1 год 3 месяца

Сообщений: 53

Создавать темы 21-Янв-2019 16:18

[Цитировать]

20 Years of



Жанр: R'n'B, Hip-Hop, Pop
Продолжительность: 00:53:13
Год выпуска: 22 Dec 2018
Качество: HDTV
Разрешение видео/развертка: 1080i
Контейнер: TS
Видео кодек: H.264
Аудио кодек: AC3, MP2
Видео: MPEG4 Video (H264) 1920x1080 25fps 9 114 kb/s
Аудио: Dolby AC3 48000Hz stereo 192kbps
Аудио 2: MPEG Audio 48000Hz stereo 160kbps

Треклист

Let's Get It Started
Interview
Pump It
Interview
Wings (feat. Nicole Scherzinger)
Interview
Big Love (feat. Daniel)
I Gotta Feeling
Interview
Where Is The Love (feat. Tom Jones, Nicole Scherzinger & Daniel)

Отчёт MediaInfo / BDInfo

General
ID : 1 (0x1)
Complete name : E:\20 Years of Black Eyed Peas 2018.ts
Format : MPEG-TS
File size : 3.70 GiB
Duration : 53 min 12 s
Overall bit rate mode : Variable
Overall bit rate : 9 961 kb/s
Video
ID : 2325 (0x915)
Menu ID : 20840 (0x5168)
Format : AVC
Format/Info : Advanced Video Codec
Format profile : Main@L4
Format settings : CABAC / 4 Ref Frames
Format settings, CABAC : Yes
Format settings, ReFrames : 4 frames
Codec ID : 27
Duration : 53 min 12 s
Bit rate : 9 114 kb/s
Width : 1 920 pixels
Height : 1 080 pixels
Display aspect ratio : 16:9
Frame rate : 25.000 FPS
Standard : Component
Color space : YUV
Chroma subsampling : 4:2:0
Bit depth : 8 bits
Scan type : MBAFF
Scan type, store method : Interleaved fields
Scan order : Top Field First
Bits/(Pixel*Frame) : 0.176
Stream size : 3.39 GiB (91%)
Color range : Limited
Color primaries : BT.709
Transfer characteristics : BT.709
Matrix coefficients : BT.709
Audio #1
ID : 2326 (0x916)
Menu ID : 20840 (0x5168)
Format : AC-3
Format/Info : Audio Coding 3
Commercial name : Dolby Digital
Codec ID : 6
Duration : 53 min 12 s
Bit rate mode : Constant
Bit rate : 192 kb/s
Channel(s) : 2 channels
Channel layout : L R
Sampling rate : 48.0 kHz
Frame rate : 31.250 FPS (1536 SPF)
Bit depth : 16 bits
Compression mode : Lossy
Stream size : 73.1 MiB (2%)
Language : English
Service kind : Complete Main
Audio #2
ID : 2327 (0x917)
Menu ID : 20840 (0x5168)
Format : MPEG Audio
Format version : Version 1
Format profile : Layer 2
Format settings : Joint stereo
Codec ID : 3
Duration : 53 min 12 s
Bit rate mode : Constant
Bit rate : 160 kb/s
Channel(s) : 2 channels
Sampling rate : 48.0 kHz
Frame rate : 41.667 FPS (1152 SPF)
Compression mode : Lossy
Stream size : 60.9 MiB (2%)
Language : nar
[torrents24.ru].t71676.torrent 
Торрент: Зарегистрирован [ 2019-01-21 16:20 ] · 99E1A3A78868E2A144D09BA71DFFC06DCB1DE24C

Скачать .torrent

Скачать

19 KB

Статус: проверено
Скачан: 0 раз
Размер: 3,7 GB
terms.php
[Профиль] [ЛС]
Показать сообщения:    
Ответить на тему

Текущее время: 26-Май 06:31

Часовой пояс: UTC + 3



Вы не можете начинать темы
Вы не можете отвечать на сообщения
Вы не можете редактировать свои сообщения
Вы не можете удалять свои сообщения
Вы не можете голосовать в опросах
Вы не можете прикреплять файлы к сообщениям
Вы можете скачивать файлы

Интересное в сети