Madness - Rocks Big Ben Live (Plus New Year Fireworks) [2019, Ska, Pop, New wave, HDTV feed, 1080i]

Ответить на тему
Статистика раздачи
Размер:  27,24 GB   |    Зарегистрирован:  4 месяца 4 дня   |    Скачан:  0 раз

Полного источника не было: Никогда

Личеров:  6  [  0 KB/s  ]  
 
   
 
 
Автор Сообщение

Volga ®

Пол: Не указан

Стаж: 1 год 3 месяца

Сообщений: 18

Создавать темы 21-Янв-2019 16:18

[Цитировать]

Madness - Rocks Big Ben Live (Plus New Year Fireworks)
Жанр: Ska, Pop, New wave
Продолжительность: 01:49:01
Год выпуска: 2019
Описание: Welcome to BBC One’s night of fun for New Year’s Eve! Great British Pop band Madness are set to brighten up the night with a live concert on BBC One, performing their biggest hits as they kick off the New Year celebrations.
Треклист:
Pre-TV broadcast:
Driving in My Car
Tomorrow's Just Another Day
Pre-fireworks set:
One Step Beyond (Prince Buster cover)
Embarrassment
The Prince
Mr. Apples
House of Fun
Wings of a Dove
Fireworks
Post fireworks set:
Auld lang syne (Robert Burns cover)
It Must Be Love (Labi Siffre cover)
NW5
My Girl
The Sun and the Rain
Lovestruck
My Girl 2
Shut Up
Bed and Breakfast Man
In My Street
Baggy Trousers
Our House
Madness (Prince Buster cover)
Night Boat to Cairo
Качество: HDTV feed
Разрешение видео/развертка: 1080i
Контейнер: TS
Видео кодек: H.264
Аудио кодек: MP2
Видео: AVC, 1920x1080 (16:9), 25.000 fps, 33.2 Mbps
Аудио#1: MP2, 48.0 KHz, 2 ch, 384 Kbps
Аудио#2: MP2, 48.0 KHz, 2 ch, 384 Kbps
Аудио#3: MP2, 48.0 KHz, 2 ch, 384 Kbps
Аудио#4: MP2, 48.0 KHz, 2 ch, 384 Kbps

Mediainfo

General
ID : 0 (0x0)
Complete name : K:\Madness - Rocks BIG BEN - Live - MPEG4HD 422Enhanced 30bits - UPLINK [SRSL].ts
Format : MPEG-TS
File size : 27.2 GiB
Duration : 1 h 49 min
Start time : UTC 2019-01-31 23:19:22
Overall bit rate mode : Variable
Overall bit rate : 35.8 Mb/s
Video
ID : 512 (0x200)
Menu ID : 1 (0x1)
Format : AVC
Format/Info : Advanced Video Codec
Format profile : High 4:2:2@L4
Format settings : CABAC / 3 Ref Frames
Format settings, CABAC : Yes
Format settings, RefFrames : 3 frames
Codec ID : 27
Duration : 1 h 49 min
Bit rate mode : Constant
Bit rate : 33.2 Mb/s
Width : 1 920 pixels
Height : 1 080 pixels
Display aspect ratio : 16:9
Frame rate : 25.000 FPS
Color space : YUV
Chroma subsampling : 4:2:2
Bit depth : 10 bits
Scan type : MBAFF
Scan type, store method : Interleaved fields
Scan order : Top Field First
Bits/(Pixel*Frame) : 0.640
Stream size : 24.7 GiB (91%)
Color range : Limited
Color primaries : BT.709
Transfer characteristics : BT.709
Matrix coefficients : BT.709
Audio #1
ID : 4112 (0x1010)
Menu ID : 1 (0x1)
Format : MPEG Audio
Format version : Version 1
Format profile : Layer 2
Codec ID : 3
Duration : 1 h 49 min
Bit rate mode : Constant
Bit rate : 384 kb/s
Channel(s) : 2 channels
Sampling rate : 48.0 kHz
Frame rate : 41.667 FPS (1152 SPF)
Compression mode : Lossy
Delay relative to video : -328 ms
Stream size : 299 MiB (1%)
Audio #2
ID : 4128 (0x1020)
Menu ID : 1 (0x1)
Format : MPEG Audio
Format version : Version 1
Format profile : Layer 2
Codec ID : 3
Duration : 1 h 49 min
Bit rate mode : Constant
Bit rate : 384 kb/s
Channel(s) : 2 channels
Sampling rate : 48.0 kHz
Frame rate : 41.667 FPS (1152 SPF)
Compression mode : Lossy
Delay relative to video : -328 ms
Stream size : 299 MiB (1%)
Audio #3
ID : 4144 (0x1030)
Menu ID : 1 (0x1)
Format : MPEG Audio
Format version : Version 1
Format profile : Layer 2
Codec ID : 3
Duration : 1 h 49 min
Bit rate mode : Constant
Bit rate : 384 kb/s
Channel(s) : 2 channels
Sampling rate : 48.0 kHz
Frame rate : 41.667 FPS (1152 SPF)
Compression mode : Lossy
Delay relative to video : -328 ms
Stream size : 299 MiB (1%)
Audio #4
ID : 4160 (0x1040)
Menu ID : 1 (0x1)
Format : MPEG Audio
Format version : Version 1
Format profile : Layer 2
Codec ID : 3
Duration : 1 h 49 min
Bit rate mode : Constant
Bit rate : 384 kb/s
Channel(s) : 2 channels
Sampling rate : 48.0 kHz
Frame rate : 41.667 FPS (1152 SPF)
Compression mode : Lossy
Delay relative to video : -328 ms
Stream size : 299 MiB (1%)
Menu
ID : 2048 (0x800)
Menu ID : 1 (0x1)
List : 512 (0x200) (AVC) / 4112 (0x1010) (MPEG Audio) / 4128 (0x1020) (MPEG Audio) / 4144 (0x1030) (MPEG Audio) / 4160 (0x1040) (MPEG Audio)
Service type : advanced codec HD digital television

Скриншоты

[torrents24.ru].t71668.torrent 
Торрент: Зарегистрирован [ 2019-01-21 16:20 ] · 04C508A171A343E2F5D1576611A253734A83ED37

Скачать .torrent

Скачать

137 KB

Статус: проверено
Скачан: 0 раз
Размер: 27,24 GB
terms.php
[Профиль] [ЛС]
Показать сообщения:    
Ответить на тему

Текущее время: 26-Май 06:01

Часовой пояс: UTC + 3



Вы не можете начинать темы
Вы не можете отвечать на сообщения
Вы не можете редактировать свои сообщения
Вы не можете удалять свои сообщения
Вы не можете голосовать в опросах
Вы не можете прикреплять файлы к сообщениям
Вы можете скачивать файлы

Интересное в сети