Статистика раздачи
Размер:  4,37 GB   |    Зарегистрирован:  25 дней   |    Скачан:  0 раз

Полного источника не было: Никогда

 
   
 
 

Cyber ®

Пол:
Не указан
Стаж:
1 год
Сообщений:
512

Taylor Swift - Wildest Dreams
Жанр: Dream pop
Продолжительность: 00:03:54
Год выпуска: 2015
Качество: Master
Разрешение видео/развертка: 1080p
Контейнер: MOV
Видео кодек: ProRes 422 HQ
Аудио кодек: PCM
Видео: ProRes, 1920x1080 (16:9), 23.976 fps, 158 Mbps
Аудио: PCM, 48.0 KHz, 2 ch, 1536 Kbps

Отчёт MediaInfo

Общее
Полное имя : E:\VIDEO\Video-Clips\TS\MASTER\Taylor Swift - Wildest Dreams (Master ProRes 1080p) - 2015.mov
Формат : MPEG-4
Профиль формата : QuickTime
Идентификатор кодека : qt 2005.03 (qt )
Размер файла : 4,37 Гбайт
Продолжительность : 3 м. 54 с.
Режим общего битрейта : Переменный
Общий поток : 160 Мбит/сек
Дата кодирования : UTC 2015-08-30 19:22:07
Дата пометки : UTC 2015-08-30 19:30:42
Библиотека кодирования : Apple QuickTime
TIM : 00:00:00:00
TSC : 24000
TSZ : 1001
Видео
Идентификатор : 1
Формат : ProRes
Версия формата : Version 0
Профиль формата : 422 HQ
Идентификатор кодека : apch
Продолжительность : 3 м. 54 с.
Вид битрейта : Переменный
Битрейт : 158 Мбит/сек
Ширина : 1920 пикселей
Высота : 1080 пикселей
Соотношение сторон : 16:9
Режим частоты кадров : Постоянный
Частота кадров : 23,976 (24000/1001) кадра/сек
Цветовое пространство : YUV
Субдискретизация насыщенности : 4:2:2
Тип развёртки : Прогрессивная
Бит/(Пиксели*Кадры) : 3.184
Размер потока : 4,32 Гбайт (99%)
Библиотека кодирования : aut0
Язык : English
Дата кодирования : UTC 2015-08-30 19:22:07
Дата пометки : UTC 2015-08-30 19:22:07
Основные цвета : BT.709
Характеристики трансфера : BT.709
Коэффициенты матрицы : BT.709
matrix_coefficients_Original : BT.709
Аудио
Идентификатор : 2
Формат : PCM
Настройки формата : Little / Signed
Идентификатор кодека : sowt
Продолжительность : 3 м. 54 с.
Вид битрейта : Постоянный
Битрейт : 1536 Кбит/сек
Каналы : 2 канала
Channel layout : L R
Частота : 48,0 КГц
Битовая глубина : 16 бит
Размер потока : 43,0 Мбайт (1%)
Язык : English
Дата кодирования : UTC 2015-08-30 19:22:07
Дата пометки : UTC 2015-08-30 19:22:07
Текст #1
Идентификатор : 4-CC1
Формат : EIA-608
Режим смешивания : Final Cut / CDP
Идентификатор кодека : c708
Продолжительность : 3 м. 54 с.
Вид битрейта : Постоянный
Размер потока : 0,00 байт (0%)
Язык : English
Forced : Нет
Дата кодирования : UTC 2015-08-30 19:30:42
Дата пометки : UTC 2015-08-30 19:30:42
CaptionServiceName : CC1
Текст #2
Идентификатор : 4-1
Формат : EIA-708
Режим смешивания : Final Cut / CDP
Идентификатор кодека : c708
Продолжительность : 3 м. 54 с.
Вид битрейта : Постоянный
Размер потока : 0,00 байт (0%)
Язык : English
Forced : Нет
Дата кодирования : UTC 2015-08-30 19:30:42
Дата пометки : UTC 2015-08-30 19:30:42
Прочее
Идентификатор : 3
Тип : Time code
Формат : QuickTime TC
Продолжительность : 3 м. 54 с.
Временной код первого кадра : 00:00:00:00
Временной код, чередующийся : Да
Язык : English
Дата кодирования : UTC 2015-08-30 19:22:07
Дата пометки : UTC 2015-08-30 19:22:07
[torrents24.ru].t71662.torrent 
Торрент: Зарегистрирован [ 2019-01-21 16:20 ] · 4D3D51600C80C0EC1F36421CC4FB17AB6D7874A5

Скачать .torrent

Скачать

22 KB

Статус: проверено
Скачан: 0 раз
Размер: 4,37 GB

Профиль [ЛС]
Показать сообщения:    

Текущее время: 16-Фев 02:35

Часовой пояс: UTC + 3



Вы не можете начинать темы
Вы не можете отвечать на сообщения
Вы не можете редактировать свои сообщения
Вы не можете удалять свои сообщения
Вы не можете голосовать в опросах
Вы не можете прикреплять файлы к сообщениям
Вы можете скачивать файлы