Foreigner with The 21st Century Symphony Orchestra And Chorus • Live 40th Anniversary [2018, Rock, HDTV, 720p]

Ответить на тему
Статистика раздачи
Размер:  5,6 GB   |    Зарегистрирован:  10 месяцев 25 дней   |    Скачан:  2 раза

Полного источника не было: 1 месяц 1 день

Личеров:  6  [  0 KB/s  ]  
 
   
 
 
Автор Сообщение

craft ®

Пол: Не указан

Стаж: 1 год 10 месяцев

Сообщений: 13

Создавать темы 21-Янв-2019 16:18

[Цитировать]

Foreigner
Live 40th Anniversary Tour
Жанр: Rock
Продолжительность: 00:59:20
Год выпуска: 2018-01. Overture
02. Blue Morning, Blue Day
03. Cold as Ice
04. Waiting for a Girl Like You
05. When It Comes to Love
06. Say You Will
07. Double Vision
08. Hot Blooded
09. Urgent
10. Feels Like the First Time
11. I Wanna Know What Love Is
-Качество: HDTV
Разрешение видео/развертка: 720p
Контейнер: TS
Видео кодек: H.264
Аудио кодек: AC3
Видео: MPEG4 Video (H264) 1280x720 50fps 12.4 Mb/s
Аудио: Dolby AC3 48000Hz stereo 448kbps

Отчёт MediaInfo / BDInfo

General
ID : 1 (0x1)
Complete name : E:\Foreigner - Live 40th Anniversary 2018.ts
Format : MPEG-TS
File size : 5.60 GiB
Duration : 59 min 19 s
Overall bit rate mode : Variable
Overall bit rate : 13.5 Mb/s
Video
ID : 6510 (0x196E)
Menu ID : 1 (0x1)
Format : AVC
Format/Info : Advanced Video Codec
Format profile : High@L4
Format settings : CABAC / 6 Ref Frames
Format settings, CABAC : Yes
Format settings, ReFrames : 6 frames
Codec ID : 27
Duration : 59 min 19 s
Bit rate : 12.4 Mb/s
Width : 1 280 pixels
Height : 720 pixels
Display aspect ratio : 16:9
Frame rate : 50.000 FPS
Color space : YUV
Chroma subsampling : 4:2:0
Bit depth : 8 bits
Scan type : Progressive
Bits/(Pixel*Frame) : 0.269
Stream size : 5.13 GiB (92%)
Color range : Limited
Color primaries : BT.709
Transfer characteristics : BT.709
Matrix coefficients : BT.709
Audio
ID : 6522 (0x197A)
Menu ID : 1 (0x1)
Format : AC-3
Format/Info : Audio Coding 3
Commercial name : Dolby Digital
Codec ID : 6
Duration : 59 min 19 s
Bit rate mode : Constant
Bit rate : 448 kb/s
Channel(s) : 2 channels
Channel layout : L R
Sampling rate : 48.0 kHz
Frame rate : 31.250 FPS (1536 SPF)
Bit depth : 16 bits
Compression mode : Lossy
Stream size : 190 MiB (3%)
Language : German
Service kind : Complete Main
Other
ID : 6530 (0x1982)-100
Menu ID : 1 (0x1)
Format : Teletext
Language : German
[torrents24.ru].t71658.torrent 
Торрент: Зарегистрирован [ 2019-01-21 16:20 ] · 7F91FDEAD962C812AA71C7811D92177B72BBE3D6

Скачать .torrent

Скачать

14 KB

Статус: проверено
Скачан: 2 раз
Размер: 5,6 GB
terms.php
[Профиль] [ЛС]
Показать сообщения:    
Ответить на тему

Текущее время: 16-Дек 10:31

Часовой пояс: UTC + 3



Вы не можете начинать темы
Вы не можете отвечать на сообщения
Вы не можете редактировать свои сообщения
Вы не можете удалять свои сообщения
Вы не можете голосовать в опросах
Вы не можете прикреплять файлы к сообщениям
Вы можете скачивать файлы

Интересное в сети