Taylor Swift - Shake It Off [2014, Dance-pop, Master, 1080p]

Ответить на тему
Статистика раздачи
Размер:  4,88 GB   |    Зарегистрирован:  10 месяцев 16 дней   |    Скачан:  0 раз

Полного источника не было: Никогда

 
   
 
 
Автор Сообщение

Cyber ®

Пол: Не указан

Стаж: 1 год 10 месяцев

Сообщений: 1435

Создавать темы 21-Янв-2019 16:18

[Цитировать]

Taylor Swift - Shake It Off
Жанр: Dance-pop
Продолжительность: 00:04:07
Год выпуска: 2014
Качество: Master
Разрешение видео/развертка: 1080p
Контейнер: MOV
Видео кодек: ProRes 422 HQ
Аудио кодек: PCM
Видео: ProRes, 1920x1080 (16:9), 23.976 fps, 167 Mbps
Аудио: PCM, 48.0 KHz, 2 ch, 2304 Kbps

Отчёт MediaInfo

Общее
Полное имя : E:\VIDEO\Video-Clips\TS\MASTER\Taylor Swift - Shake It Off (Master ProRes 1080p) - 2014.mov
Формат : MPEG-4
Профиль формата : QuickTime
Идентификатор кодека : qt 2005.03 (qt )
Размер файла : 4,88 Гбайт
Продолжительность : 4 м. 7 с.
Режим общего битрейта : Переменный
Общий поток : 169 Мбит/сек
Дата кодирования : UTC 2014-08-06 18:08:21
Дата пометки : UTC 2014-08-06 18:15:54
Библиотека кодирования : Apple QuickTime
Media/UUID : 03C19EF7-BEC6-4F4F-B9A4-C8D57ABC8ADA
Видео
Идентификатор : 1
Формат : ProRes
Версия формата : Version 0
Профиль формата : 422 HQ
Идентификатор кодека : apch
Продолжительность : 4 м. 7 с.
Вид битрейта : Переменный
Битрейт : 167 Мбит/сек
Ширина : 1920 пикселей
Width_CleanAperture/String : 1888 пикселей
Высота : 1080 пикселей
Height_CleanAperture/String : 1062 пикселя
Соотношение сторон : 16:9
DisplayAspectRatio_CleanAperture/String : 16:9
Режим частоты кадров : Постоянный
Частота кадров : 23,976 (23976/1000) кадра/сек
Цветовое пространство : YUV
Субдискретизация насыщенности : 4:2:2
Тип развёртки : Прогрессивная
Бит/(Пиксели*Кадры) : 3.358
Размер потока : 4,81 Гбайт (99%)
Библиотека кодирования : Apple
Язык : English
Дата кодирования : UTC 2014-08-06 18:08:21
Дата пометки : UTC 2014-08-06 18:15:54
Основные цвета : BT.709
Характеристики трансфера : BT.709
Коэффициенты матрицы : BT.709
Аудио
Идентификатор : 2
Формат : PCM
Настройки формата : Little / Signed
Идентификатор кодека : in24
Продолжительность : 4 м. 7 с.
Вид битрейта : Постоянный
Битрейт : 2304 Кбит/сек
Каналы : 2 канала
Channel layout : L R
Частота : 48,0 КГц
Битовая глубина : 24 бит
Размер потока : 68,0 Мбайт (1%)
Язык : English
Дата кодирования : UTC 2014-08-06 18:08:21
Дата пометки : UTC 2014-08-06 18:15:54
Прочее
Идентификатор : 3
Тип : Time code
Формат : QuickTime TC
Продолжительность : 4 м. 7 с.
Временной код первого кадра : 01:00:00:00
Временной код, чередующийся : Да
Язык : English
Дата кодирования : UTC 2014-08-06 18:15:54
Дата пометки : UTC 2014-08-06 18:15:54

Скриншоты

[torrents24.ru].t71648.torrent 
Торрент: Зарегистрирован [ 2019-01-21 16:20 ] · 0352464751F31878AA4FB60E6638463B1ADB3EBB

Скачать .torrent

Скачать

25 KB

Статус: проверено
Скачан: 0 раз
Размер: 4,88 GB
terms.php
[Профиль] [ЛС]
Показать сообщения:    
Ответить на тему

Текущее время: 06-Дек 23:23

Часовой пояс: UTC + 3



Вы не можете начинать темы
Вы не можете отвечать на сообщения
Вы не можете редактировать свои сообщения
Вы не можете удалять свои сообщения
Вы не можете голосовать в опросах
Вы не можете прикреплять файлы к сообщениям
Вы можете скачивать файлы

Интересное в сети