Smashing Pumpkins • Jimmy Kimmel Live [2018, Alternative Rock, HDTV, 720p]

Ответить на тему
Статистика раздачи
Размер:  682 MB   |    Зарегистрирован:  10 месяцев 16 дней   |    Скачан:  0 раз

Полного источника не было: Никогда

Личеров:  6  [  0 KB/s  ]  
 
   
 
 
Автор Сообщение

craft ®

Пол: Не указан

Стаж: 1 год 9 месяцев

Сообщений: 13

Создавать темы 21-Янв-2019 16:18

[Цитировать]


Smashing Pumpkins


Жанр: Alternative Rock
Продолжительность: 00:06:39
Год выпуска: 2018
Качество: HDTV
Разрешение видео/развертка: 720p
Контейнер: TS
Видео кодек: MPEG2
Аудио кодек: AC3
Видео: MPEG2 Video 1280x720 59.94fps 13.1 Mb/s
Аудио: Dolby AC3 48000Hz 6ch 384kbps
Аудио 2: Dolby AC3 48000Hz stereo 128kbps

Треклист

Silvery Sometimes (Ghosts)
Knights Of Malta (Partial)

Отчёт MediaInfo / BDInfo

General
ID : 1 (0x1)
Complete name : J:\Smashing Pumpkins - Jimmy Kimmel Live 2018.ts
Format : MPEG-TS
File size : 682 MiB
Duration : 6 min 39 s
Overall bit rate mode : Variable
Overall bit rate : 14.3 Mb/s
Movie name : JIMMY KIMMEL LIVE
Law rating : TV-14 (DL)
Video
ID : 49 (0x31)
Menu ID : 3 (0x3)
Format : MPEG Video
Format version : Version 2
Format profile : Main@High
Format settings : CustomMatrix / BVOP
Format settings, BVOP : Yes
Format settings, Matrix : Custom
Format settings, GOP : Variable
Codec ID : 2
Duration : 6 min 39 s
Bit rate mode : Variable
Bit rate : 13.1 Mb/s
Maximum bit rate : 24.0 Mb/s
Width : 1 280 pixels
Height : 720 pixels
Display aspect ratio : 16:9
Frame rate : 59.940 (60000/1001) FPS
Color space : YUV
Chroma subsampling : 4:2:0
Bit depth : 8 bits
Scan type : Progressive
Compression mode : Lossy
Bits/(Pixel*Frame) : 0.237
Time code of first frame : 00:00:00;00
Time code source : Group of pictures header
GOP, Open/Closed : Open
GOP, Open/Closed of first fram : Closed
Stream size : 623 MiB (91%)
Audio #1
ID : 52 (0x34)
Menu ID : 3 (0x3)
Format : AC-3
Format/Info : Audio Coding 3
Commercial name : Dolby Digital
Codec ID : 129
Duration : 6 min 39 s
Bit rate mode : Constant
Bit rate : 384 kb/s
Channel(s) : 6 channels
Channel layout : L R C LFE Ls Rs
Sampling rate : 48.0 kHz
Frame rate : 31.250 FPS (1536 SPF)
Bit depth : 16 bits
Compression mode : Lossy
Delay relative to video : 3 ms
Stream size : 18.3 MiB (3%)
Language : English
Service kind : Complete Main
Audio #2
ID : 53 (0x35)
Menu ID : 3 (0x3)
Format : AC-3
Format/Info : Audio Coding 3
Commercial name : Dolby Digital
Codec ID : 129
Duration : 6 min 39 s
Bit rate mode : Constant
Bit rate : 128 kb/s
Channel(s) : 2 channels
Channel layout : L R
Sampling rate : 48.0 kHz
Frame rate : 31.250 FPS (1536 SPF)
Bit depth : 16 bits
Compression mode : Lossy
Stream size : 6.09 MiB (1%)
Language : Spanish
Service kind : Visually Impaired

Скриншоты

[torrents24.ru].t71646.torrent 
Торрент: Зарегистрирован [ 2019-01-21 16:20 ] · 98CC8E1796F9399420389327111D8E6A6874A200

Скачать .torrent

Скачать

14 KB

Статус: проверено
Скачан: 0 раз
Размер: 682 MB
terms.php
[Профиль] [ЛС]
Показать сообщения:    
Ответить на тему

Текущее время: 06-Дек 23:47

Часовой пояс: UTC + 3



Вы не можете начинать темы
Вы не можете отвечать на сообщения
Вы не можете редактировать свои сообщения
Вы не можете удалять свои сообщения
Вы не можете голосовать в опросах
Вы не можете прикреплять файлы к сообщениям
Вы можете скачивать файлы

Интересное в сети