Taylor Swift - Bad Blood ft. Kendrick Lamar [2015, Funk-pop, Master, 1080p]

Ответить на тему
Статистика раздачи
Размер:  4,44 GB   |    Зарегистрирован:  10 месяцев 25 дней   |    Скачан:  0 раз

Полного источника не было: Никогда

 
   
 
 
Автор Сообщение

Cyber ®

Пол: Не указан

Стаж: 1 год 10 месяцев

Сообщений: 98

Создавать темы 21-Янв-2019 16:18

[Цитировать]

Taylor Swift - Bad Blood ft. Kendrick Lamar
Жанр: Funk-pop
Продолжительность: 00:04:04
Год выпуска: 2015
Качество: Master
Разрешение видео/развертка: 1080p
Контейнер: MOV
Видео кодек: ProRes 422 HQ
Аудио кодек: PCM
Видео: ProRes, 1920x1080 (16:9), 23.976 fps, 156 Mbps
Аудио: PCM, 48.0 KHz, 2 ch, 1536 Kbps

Отчёт MediaInfo

Общее
Полное имя : E:\VIDEO\Video-Clips\TS\MASTER\Taylor Swift & Kendrick Lamar - Bad Blood (Master Clean ProRes 1080p) - 2015.mov
Формат : MPEG-4
Профиль формата : QuickTime
Идентификатор кодека : qt 2005.03 (qt )
Размер файла : 4,44 Гбайт
Продолжительность : 4 м. 4 с.
Режим общего битрейта : Переменный
Общий поток : 156 Мбит/сек
Дата кодирования : UTC 2015-05-17 22:42:57
Дата пометки : UTC 2015-05-17 22:59:22
Библиотека кодирования : Apple QuickTime
TIM : 00:00:00:00
TSC : 24000
TSZ : 1001
Видео
Идентификатор : 1
Формат : ProRes
Версия формата : Version 0
Профиль формата : 422 HQ
Идентификатор кодека : apch
Продолжительность : 4 м. 4 с.
Вид битрейта : Переменный
Битрейт : 154 Мбит/сек
Ширина : 1920 пикселей
Высота : 1080 пикселей
Соотношение сторон : 16:9
Режим частоты кадров : Постоянный
Частота кадров : 23,976 (24000/1001) кадра/сек
Цветовое пространство : YUV
Субдискретизация насыщенности : 4:2:2
Тип развёртки : Прогрессивная
Бит/(Пиксели*Кадры) : 3.101
Размер потока : 4,39 Гбайт (99%)
Библиотека кодирования : aut0
Язык : English
Дата кодирования : UTC 2015-05-17 22:42:57
Дата пометки : UTC 2015-05-17 22:42:57
Основные цвета : BT.709
Характеристики трансфера : BT.709
Коэффициенты матрицы : BT.709
matrix_coefficients_Original : BT.709
Аудио
Идентификатор : 2
Формат : PCM
Настройки формата : Little / Signed
Идентификатор кодека : sowt
Продолжительность : 4 м. 4 с.
Вид битрейта : Постоянный
Битрейт : 1536 Кбит/сек
Каналы : 2 канала
Channel layout : L R
Частота : 48,0 КГц
Битовая глубина : 16 бит
Размер потока : 44,8 Мбайт (1%)
Язык : English
Дата кодирования : UTC 2015-05-17 22:42:57
Дата пометки : UTC 2015-05-17 22:42:57
Текст #1
Идентификатор : 4-CC1
Формат : EIA-608
Режим смешивания : Final Cut / CDP
Идентификатор кодека : c708
Продолжительность : 4 м. 4 с.
Вид битрейта : Постоянный
Размер потока : 0,00 байт (0%)
Язык : English
Forced : Нет
Дата кодирования : UTC 2015-05-17 22:59:22
Дата пометки : UTC 2015-05-17 22:59:22
CaptionServiceName : CC1
Текст #2
Идентификатор : 4-1
Формат : EIA-708
Режим смешивания : Final Cut / CDP
Идентификатор кодека : c708
Продолжительность : 4 м. 4 с.
Вид битрейта : Постоянный
Размер потока : 0,00 байт (0%)
Язык : English
Forced : Нет
Дата кодирования : UTC 2015-05-17 22:59:22
Дата пометки : UTC 2015-05-17 22:59:22
Прочее
Идентификатор : 3
Тип : Time code
Формат : QuickTime TC
Продолжительность : 4 м. 4 с.
Временной код первого кадра : 00:00:00:00
Временной код, чередующийся : Да
Язык : English
Дата кодирования : UTC 2015-05-17 22:42:57
Дата пометки : UTC 2015-05-17 22:42:57
[torrents24.ru].t71636.torrent 
Торрент: Зарегистрирован [ 2019-01-21 16:20 ] · 77ADD75C623360F1A409A4220971CE494A215D72

Скачать .torrent

Скачать

23 KB

Статус: проверено
Скачан: 0 раз
Размер: 4,44 GB
terms.php
[Профиль] [ЛС]

WilliamPgb

Пол: Мужской

Стаж: 22 дня

Сообщений: 1

Откуда: Antigua and Barbuda

Создавать темы 24-Ноя-2019 03:51 (спустя 10 месяцев 2 дня)

[Цитировать]

http://loprozac.info - order prozac no prescription <a href=http://loprozac.info/#>order fluoxetine online</a>
[Профиль] [ЛС]
Показать сообщения:    
Ответить на тему

Текущее время: 16-Дек 10:56

Часовой пояс: UTC + 3



Вы не можете начинать темы
Вы не можете отвечать на сообщения
Вы не можете редактировать свои сообщения
Вы не можете удалять свои сообщения
Вы не можете голосовать в опросах
Вы не можете прикреплять файлы к сообщениям
Вы можете скачивать файлы

Интересное в сети