Volbeat - Let´s Boogie: Live From Telia Parken [2018, Heavy Metal, BDRip , 1080p]

Ответить на тему
Статистика раздачи
Размер:  18,83 GB   |    Зарегистрирован:  10 месяцев 16 дней   |    Скачан:  1 раз

Полного источника не было: 3 месяца 4 дня

Личеров:  6  [  0 KB/s  ]  
 
   
 
 
Автор Сообщение

craft ®

Пол: Не указан

Стаж: 1 год 9 месяцев

Сообщений: 13

Создавать темы 21-Янв-2019 16:18

[Цитировать]

Volbeat - Let´s Boogie: Live From Telia Parken
Жанр: Heavy Metal
Продолжительность: 02:20:16
Год выпуска: 2018
Описание: On August 26, 2017 VOLBEAT sold out the Telia Parking Stadium in Copenhagen. With 48.250 tickets sold, they hold the record for the biggest show of a local artist ever since. To celebrate and celebrate this high point of their career, the band is releasing their new live album and accompanying concert film Let's Boogie! Live At Telia Parking.
Треклист:
01.The Devil’s Bleeding Crown
02. Heaven Nor Hell
03. Radio Girl
04. Lola Montez
05. Let It Burn (feat. Mia Maja)
06. Doc Holliday
07. Sad Man’s Tongue
08. 16 Dollars
09. 7 Shots (feat. Mille Petrozza und Rod Sinclair)
10. Fallen
11. Slaytan
12. Dead But Rising
13. Goodbye Forever
14. Maybellene I Hofteholder
15. The Everlasting
16. For Evigt (feat. Johan Olsen, Mia Maja und Rod Sinclair)
17. Evelyn (feat. Mark „Barney“ Greenway)
18. Lonesome Rider
19. Seal The Deal
20. The Garden’s Tale (feat. Johan Olsen)
21. Guitar Gangsters and Cadillac Blood (feat. Lars Ulrich)
22. Enter Sandman (feat. Lars Ulrich)
23. A Warrior’s Call (feat. Mikkel Kessler)
24. Black Rose (feat. Danko Jones)
25. Pool Of Booze, Booze, Booza
26. Still Counting
Исходник Volbeat - Let´s Boogie: Live From Telia Parken [2018, Heavy Metal, Blu-ray, 1080i]
Качество: BDRip
Разрешение видео/развертка: 1080p
Контейнер: MKV
Видео кодек: H.264
Аудио кодек: DTS, FLAC
Видео: AVC, 1920x1080 (16:9), 29.970 fps, 16.0 Mbps
Аудио#1: DTS, 48.0 KHz, 6 ch, 1 510 Kbps
Аудио#2: FLAC, 48.0 KHz, 2 ch, 1 752 kbps

MediaInfo/x264Log

x264Log

[Information] [03.01.2019 22:06:52] Standard error stream
-[Information] [03.01.2019 22:07:50] y4m [info]: 1920x1080p 1:1 @ 30000/1001 fps (cfr)
-[Information] [03.01.2019 22:07:50] x264 [info]: using SAR=1/1
-[Information] [03.01.2019 22:07:50] x264 [info]: using cpu capabilities: MMX2 SSE2Fast SSSE3 SSE4.2 AVX
-[Information] [03.01.2019 22:07:50] x264 [info]: profile High, level 4.1, 4:2:0, 8-bit
-[Information] [05.01.2019 6:08:03] x264 [info]: frame I:2000 Avg QP:17.64 size:221844
-[Information] [05.01.2019 6:08:03] x264 [info]: frame P:71319 Avg QP:21.06 size: 91046
-[Information] [05.01.2019 6:08:03] x264 [info]: frame B:178909 Avg QP:22.64 size: 55016
-[Information] [05.01.2019 6:08:03] x264 [info]: consecutive B-frames: 5.3% 6.8% 24.0% 17.5% 12.0% 30.4% 2.5% 0.4% 0.8% 0.3%
-[Information] [05.01.2019 6:08:03] x264 [info]: mb I I16..4: 7.2% 78.0% 14.8%
-[Information] [05.01.2019 6:08:03] x264 [info]: mb P I16..4: 5.7% 33.6% 3.1% P16..4: 23.8% 22.6% 4.3% 0.5% 0.0% skip: 6.5%
-[Information] [05.01.2019 6:08:03] x264 [info]: mb B I16..4: 1.8% 8.6% 0.4% B16..8: 35.2% 17.9% 2.4% direct:14.5% skip:19.2% L0:46.2% L1:41.5% BI:12.3%
-[Information] [05.01.2019 6:08:03] x264 [info]: 8x8 transform intra:79.4% inter:76.5%
-[Information] [05.01.2019 6:08:03] x264 [info]: direct mvs spatial:100.0% temporal:0.0%
-[Information] [05.01.2019 6:08:03] x264 [info]: coded y,uvDC,uvAC intra: 70.9% 80.1% 34.1% inter: 40.1% 52.2% 4.9%
-[Information] [05.01.2019 6:08:03] x264 [info]: i16 v,h,dc,p: 31% 16% 7% 46%
-[Information] [05.01.2019 6:08:03] x264 [info]: i8 v,h,dc,ddl,ddr,vr,hd,vl,hu: 10% 5% 9% 10% 12% 14% 12% 14% 14%
-[Information] [05.01.2019 6:08:03] x264 [info]: i4 v,h,dc,ddl,ddr,vr,hd,vl,hu: 11% 8% 6% 9% 13% 14% 13% 11% 14%
-[Information] [05.01.2019 6:08:03] x264 [info]: i8c dc,h,v,p: 27% 31% 24% 19%
-[Information] [05.01.2019 6:08:03] x264 [info]: Weighted P-Frames: Y:17.5% UV:16.2%
-[Information] [05.01.2019 6:08:03] x264 [info]: ref P L0: 54.8% 9.9% 21.1% 11.7% 2.4% 0.2%
-[Information] [05.01.2019 6:08:03] x264 [info]: ref B L0: 84.6% 12.6% 2.8%
-[Information] [05.01.2019 6:08:03] x264 [info]: ref B L1: 95.2% 4.8%
-[Information] [05.01.2019 6:08:03] x264 [info]: kb/s:15950.41
-[Information] [05.01.2019 6:08:03] encoded 252228 frames, 2.19 fps, 15950.41 kb/s
General
Unique ID : 48597407115593365492969362735486272866 (0x248F852918FD62C89B8F7135AA790562)
Complete name : K:\Volbeat - Let´s Boogie Live From Telia Parken.BDRip1080p.mkv
Format : Matroska
Format version : Version 2
File size : 18.8 GiB
Duration : 2 h 20 min
Overall bit rate mode : Variable
Overall bit rate : 19.2 Mb/s
Movie name : Volbeat - Let´s Boogie: Live From Telia Parken.BDRip1080p @ rutracker.org
Encoded date : UTC 2019-01-05 13:53:56
Writing application : mkvmerge v30.0.0 ('Interstellar') 64-bit
Writing library : libebml v1.3.6 + libmatroska v1.4.9
Video
ID : 1
Format : AVC
Format/Info : Advanced Video Codec
Format profile : High@L4.1
Format settings : CABAC / 4 Ref Frames
Format settings, CABAC : Yes
Format settings, RefFrames : 4 frames
Codec ID : V_MPEG4/ISO/AVC
Duration : 2 h 20 min
Bit rate : 16.0 Mb/s
Width : 1 920 pixels
Height : 1 080 pixels
Display aspect ratio : 16:9
Frame rate mode : Constant
Frame rate : 29.970 (30000/1001) FPS
Color space : YUV
Chroma subsampling : 4:2:0
Bit depth : 8 bits
Scan type : Progressive
Bits/(Pixel*Frame) : 0.257
Stream size : 15.6 GiB (83%)
Title : anbelk27 @ rutracker.org
Writing library : x264 core 157 r2935 545de2f
Encoding settings : cabac=1 / ref=4 / deblock=1:-2:-2 / analyse=0x3:0x133 / me=umh / subme=11 / psy=1 / psy_rd=1.13:0.05 / mixed_ref=1 / me_range=32 / chroma_me=1 / trellis=2 / 8x8dct=1 / cqm=0 / deadzone=21,11 / fast_pskip=1 / chroma_qp_offset=-3 / threads=6 / lookahead_threads=1 / sliced_threads=0 / nr=0 / decimate=1 / interlaced=0 / bluray_compat=0 / constrained_intra=0 / bframes=9 / b_pyramid=2 / b_adapt=2 / b_bias=0 / direct=3 / weightb=1 / open_gop=0 / weightp=2 / keyint=300 / keyint_min=29 / scenecut=50 / intra_refresh=0 / rc_lookahead=120 / rc=crf / mbtree=1 / crf=18.5 / qcomp=0.60 / qpmin=0 / qpmax=69 / qpstep=4 / vbv_maxrate=50000 / vbv_bufsize=62500 / crf_max=0.0 / nal_hrd=none / filler=0 / ip_ratio=1.40 / aq=1:1.00
Default : Yes
Forced : No
Audio #1
ID : 2
Format : DTS
Format/Info : Digital Theater Systems
Codec ID : A_DTS
Duration : 2 h 20 min
Bit rate mode : Constant
Bit rate : 1 509 kb/s
Channel(s) : 6 channels
Channel positions : Front: L C R, Side: L R, LFE
Sampling rate : 48.0 kHz
Frame rate : 93.750 FPS (512 SPF)
Bit depth : 24 bits
Compression mode : Lossy
Stream size : 1.48 GiB (8%)
Title : DTS 5.1 @ 24 bit
Default : Yes
Forced : No
Audio #2
ID : 3
Format : FLAC
Format/Info : Free Lossless Audio Codec
Codec ID : A_FLAC
Duration : 2 h 20 min
Bit rate mode : Variable
Bit rate : 1 752 kb/s
Channel(s) : 2 channels
Channel positions : Front: L R
Sampling rate : 48.0 kHz
Frame rate : 11.719 FPS (4096 SPF)
Bit depth : 24 bits
Stream size : 1.72 GiB (9%)
Title : FLAC 2.0 @ 24 bit
Writing library : libFLAC 1.2.1 (UTC 2007-09-17)
Default : No
Forced : No
Menu
00:00:00.000 : en: 01.The Devil’s Bleeding Crown
00:05:59.726 : en: 02. Heaven Nor Hell
00:09:25.298 : en: 03. Radio Girl
00:14:51.824 : en: 04. Lola Montez
00:20:19.818 : en: 05. Let It Burn (feat. Mia Maja)
00:24:10.248 : en: 06. Doc Holliday
00:31:42.066 : en: 07. Sad Man’s Tongue
00:36:08.666 : en: 08. 16 Dollars
00:40:22.553 : en: 09. 7 Shots (feat. Mille Petrozza und Rod Sinclair)
00:45:38.368 : en: 10. Fallen
00:53:47.624 : en: 11. Slaytan
00:55:23.653 : en: 12. Dead But Rising
00:59:06.542 : en: 13. Goodbye Forever
01:04:19.655 : en: 14. Maybellene I Hofteholder
01:08:42.651 : en: 15. The Everlasting
01:15:33.061 : en: 16. For Evigt (feat. Johan Olsen, Mia Maja und Rod Sinclair)
01:20:57.652 : en: 17. Evelyn (feat. Mark „Barney“ Greenway)
01:25:23.518 : en: 18. Lonesome Rider
01:29:56.657 : en: 20. The Garden’s Tale (feat. Johan Olsen)
01:34:28.329 : en: 20. The Garden’s Tale (feat. Johan Olsen)
01:43:23.497 : en: 21. Guitar Gangsters and Cadillac Blood (feat. Lars Ulrich)
01:47:18.999 : en: 22. Enter Sandman (feat. Lars Ulrich)
01:51:16.536 : en: 23. A Warrior’s Call (feat. Mikkel Kessler)
01:55:48.474 : en: 24. Black Rose (feat. Danko Jones)
02:01:22.308 : en: 25. Pool Of Booze, Booze, Booza
02:08:01.240 : en: 26. Still Counting
02:16:59.377 : en: Credits

Скриншоты

[torrents24.ru].t71620.torrent 
Торрент: Зарегистрирован [ 2019-01-21 16:20 ] · B4E448E697756C9B47BA261EBA70344AD5897577

Скачать .torrent

Скачать

95 KB

Статус: проверено
Скачан: 1 раз
Размер: 18,83 GB
terms.php
[Профиль] [ЛС]
Показать сообщения:    
Ответить на тему

Текущее время: 06-Дек 23:08

Часовой пояс: UTC + 3



Вы не можете начинать темы
Вы не можете отвечать на сообщения
Вы не можете редактировать свои сообщения
Вы не можете удалять свои сообщения
Вы не можете голосовать в опросах
Вы не можете прикреплять файлы к сообщениям
Вы можете скачивать файлы

Интересное в сети