Norah Jones - Live At Ronnie Scotts 2017 [2018, Jazz, Vocal Jazz, UHDTV, 2160p]

Ответить на тему
Статистика раздачи
Размер:  18,69 GB   |    Зарегистрирован:  10 месяцев 16 дней   |    Скачан:  0 раз

Полного источника не было: Никогда

 
   
 
 
Автор Сообщение

Поля ®

Пол: Не указан

Стаж: 1 год 9 месяцев

Сообщений: 5

Создавать темы 21-Янв-2019 16:18

[Цитировать]

Norah Jones - Live At Ronnie Scotts 2017
Жанр: Jazz, Vocal Jazz
Продолжительность: 01:43:00
Год выпуска: 2018
Описание: Capture from Canal + 4K
Треклист:
1. Sleeping Wild
2. Don't Be Denied
3. After the Fall
4. Sinkin' Soon
5. Out on the Road
6. And Then There Was You
7. It's a Wonderful Time for Love
8. Fleurette Africaine (African Flower)
9. Flipside
10. Day Breaks
11. Nightingale
12. Tragedy
13. Little Broken Hearts
14. Carry On
15. Don't Know Why
16. I've Got to See You Again
Качество: UHDTV
Разрешение видео/развертка: 2160p
Контейнер: TS
Видео кодек: HEVC
Аудио кодек: AC3
Видео: HEVC, 3840x2160p, 24.2 Mb/s, 50 fps
Аудио#1: E-AC-3, 48.0 KHz, 6 ch, 256 Kbps, CBR (Polish)
Аудио#2: E-AC-3, 48.0 KHz, 6 ch, 256 Kbps, CBR (qaa)

MediaInfo

General
ID : 11000 (0x2AF8)
Complete name : G:\HDBits\Norah Jones Live at Ronnie Scotts 2160p HDTV DD+5.1 HDR HEVC-Gogeta.ts
Format : MPEG-TS
File size : 18.7 GiB
Duration : 1 h 42 min
Overall bit rate mode : Variable
Overall bit rate : 26.0 Mb/s
Video
ID : 172 (0xAC)
Menu ID : 4464 (0x1170)
Format : HEVC
Format/Info : High Efficiency Video Coding
Format profile : Main 10@L5.1@High
Codec ID : 36
Duration : 1 h 42 min
Bit rate : 24.2 Mb/s
Width : 3 840 pixels
Height : 2 160 pixels
Display aspect ratio : 16:9
Frame rate : 50.000 FPS
Standard : Component
Color space : YUV
Chroma subsampling : 4:2:0 (Type 0)
Bit depth : 10 bits
Bits/(Pixel*Frame) : 0.058
Stream size : 17.4 GiB (93%)
Encryption : Encrypted
Color range : Limited
Color primaries : BT.2020
Transfer characteristics : HLG
Matrix coefficients : BT.2020 non-constant
Audio #1
ID : 128 (0x80)
Menu ID : 4464 (0x1170)
Format : E-AC-3
Format/Info : Enhanced Audio Coding 3
Codec ID : 6
Duration : 1 h 42 min
Bit rate mode : Constant
Bit rate : 256 kb/s
Channel(s) : 6 channels
Channel positions : Front: L C R, Side: L R, LFE
Sampling rate : 48.0 kHz
Frame rate : 187.500 FPS (256 SPF)
Compression mode : Lossy
Delay relative to video : -1 s 48 ms
Stream size : 189 MiB (1%)
Language : Polish
Service kind : Complete Main
Encryption : Encrypted
Audio #2
ID : 129 (0x81)
Menu ID : 4464 (0x1170)
Format : E-AC-3
Format/Info : Enhanced Audio Coding 3
Codec ID : 6
Duration : 1 h 42 min
Bit rate mode : Constant
Bit rate : 256 kb/s
Channel(s) : 6 channels
Channel positions : Front: L C R, Side: L R, LFE
Sampling rate : 48.0 kHz
Frame rate : 187.500 FPS (256 SPF)
Compression mode : Lossy
Delay relative to video : -1 s 48 ms
Stream size : 189 MiB (1%)
Language : qaa
Service kind : Complete Main
Encryption : Encrypted
Text
ID : 713 (0x2C9)
Menu ID : 4464 (0x1170)
Format : DVB Subtitle
Codec ID : 6
Language : Polish
Menu
ID : 1064 (0x428)
Menu ID : 4464 (0x1170)
Duration : 1 h 42 min
List : 128 (0x80) (E-AC-3, Polish) / 129 (0x81) (E-AC-3, qaa) / 172 (0xAC) (HEVC) / 666 (0x29A) () / 667 (0x29B) () / 713 (0x2C9) (DVB Subtitle, Polish)
Language : Polish / qaa / / / / Polish

Скриншоты

[torrents24.ru].t71618.torrent 
Торрент: Зарегистрирован [ 2019-01-21 16:20 ] · 0753E5B93FAED4745C831E1D4C3FAC13A0010BF3

Скачать .torrent

Скачать

94 KB

Статус: проверено
Скачан: 0 раз
Размер: 18,69 GB
terms.php
[Профиль] [ЛС]
Показать сообщения:    
Ответить на тему

Текущее время: 06-Дек 23:14

Часовой пояс: UTC + 3



Вы не можете начинать темы
Вы не можете отвечать на сообщения
Вы не можете редактировать свои сообщения
Вы не можете удалять свои сообщения
Вы не можете голосовать в опросах
Вы не можете прикреплять файлы к сообщениям
Вы можете скачивать файлы

Интересное в сети