VA • CMA Country Christmas [2018, Pop, Country, Jazz, HDTV, 720p]

Ответить на тему
Статистика раздачи
Размер:  9,61 GB   |    Зарегистрирован:  8 месяцев 1 день   |    Скачан:  0 раз

Полного источника не было: Никогда

 
   
 
 
Автор Сообщение

Cyber ®

Пол: Не указан

Стаж: 1 год 7 месяцев

Сообщений: 222

Создавать темы 21-Янв-2019 16:19

[Цитировать]



2018
Жанр: Pop, Country, Jazz
Продолжительность: 01:26:53
Год выпуска: 2018
Качество: HDTV
Разрешение видео/развертка: 720p
Контейнер: MKV
Видео кодек: H.264
Аудио кодек: AC3
Видео: MPEG4 Video (H264) 1280x720 59.94fps 15.4 Mb/s
Аудио: Dolby AC3 48000Hz 6ch 448kbps

Треклист

Hosted by and featuring performances from iconic entertainer Reba McEntireHave Yourself a Merry Little Christmas - Dan + Shay
Silent Night - Amy Grant
Tennessee Christmas - Amy Grant
Winter Wonderland - Brad Paisley
Jingle Bells - Brad Paisley
Let It Snow! Let It Snow! Let It Snow! - Brett Eldredge
White Christmas - Brett Eldredge
O Holy Night - Brett Young
Christmas Time Is Here - Diana Krall
Sleigh Ride - Diana Krall & The Clayton-Hamilton Jazz Orchestra
The Christmas Song - The Isaacs
It's Christmastime Again - The Isaacs
Dance of the Sugar Plum Fairy - Lindsey Stirling
Carol of the Bells - Lindsey Stirling
Silver Bells - Martina McBride
O Come All Ye Faithful - Martina McBride
What Child Is This (feat. Martina McBride) - Michael W. Smith
It's the Most Wonderful Time of the Year - Michael W. Smith
Jingle Bell Rock - Reba McEntire
Santa Claus Is Coming To Town - Reba McEntire
Snowfall - Tony Bennett
My Favorite Things - Tony Bennett

Отчёт MediaInfo / BDInfo

General
Unique ID : 274549511550612036459703456445416147627 (0xCE8C50035B59CFB1915BFEF07AC90AAB)
Complete name : F:\VA - CMA Country Christmas 2018.mkv
Format : Matroska
Format version : Version 4
File size : 9.61 GiB
Duration : 1 h 26 min
Overall bit rate : 15.8 Mb/s
Encoded date : UTC 2018-12-22 10:15:50
Writing application : mkvmerge v29.0.0 ('Like It Or Not') 64-bit
Writing library : libebml v1.3.6 + libmatroska v1.4.9
Video
ID : 1
Format : AVC
Format/Info : Advanced Video Codec
Format profile : High@L4.1
Format settings : CABAC / 4 Ref Frames
Format settings, CABAC : Yes
Format settings, ReFrames : 4 frames
Codec ID : V_MPEG4/ISO/AVC
Duration : 1 h 26 min
Bit rate : 15.4 Mb/s
Width : 1 280 pixels
Height : 720 pixels
Display aspect ratio : 16:9
Frame rate mode : Constant
Frame rate : 59.940 (60000/1001) FPS
Color space : YUV
Chroma subsampling : 4:2:0
Bit depth : 8 bits
Scan type : Progressive
Bits/(Pixel*Frame) : 0.278
Stream size : 9.33 GiB (97%)
Default : Yes
Forced : No
Color range : Limited
Color primaries : BT.709
Transfer characteristics : BT.709
Matrix coefficients : BT.709
Audio
ID : 2
Format : AC-3
Format/Info : Audio Coding 3
Commercial name : Dolby Digital
Codec ID : A_AC3
Duration : 1 h 26 min
Bit rate mode : Constant
Bit rate : 448 kb/s
Channel(s) : 6 channels
Channel layout : L R C LFE Ls Rs
Sampling rate : 48.0 kHz
Frame rate : 31.250 FPS (1536 SPF)
Bit depth : 16 bits
Compression mode : Lossy
Stream size : 278 MiB (3%)
Service kind : Complete Main
Default : Yes
Forced : No
[torrents24.ru].t71606.torrent 
Торрент: Зарегистрирован [ 2019-01-21 16:20 ] · 439633083FA999A41F93C5105612D01CECCE29BD

Скачать .torrent

Скачать

24 KB

Статус: проверено
Скачан: 0 раз
Размер: 9,61 GB
terms.php
[Профиль] [ЛС]

Josephmon

Пол: Не указан

Стаж: 3 дня

Сообщений: 55

Создавать темы 21-Сен-2019 12:22 (спустя 7 месяцев 30 дней)

[Цитировать]

kwikmed cialis <a href=" http://alturl.com/445co ">buy cialis</a>
http://cialisxtl.com cialis calgary
generic cialis difference between viagra levitra cialis
[Профиль] [ЛС]
Показать сообщения:    
Ответить на тему

Текущее время: 23-Сен 05:52

Часовой пояс: UTC + 3



Вы не можете начинать темы
Вы не можете отвечать на сообщения
Вы не можете редактировать свои сообщения
Вы не можете удалять свои сообщения
Вы не можете голосовать в опросах
Вы не можете прикреплять файлы к сообщениям
Вы можете скачивать файлы

Интересное в сети