Статистика раздачи
Размер:  660 MB   |    Зарегистрирован:  25 дней   |    Скачан:  0 раз

Полного источника не было: Никогда

 
   
 
 

Monk ®

Пол:
Не указан
Стаж:
1 год
Сообщений:
721

В ловушке тайских пещер / Спасательная операция в Таиланде / Operation Thai Cave Rescue
Дата/Год выпуска: 2018
Страна: США
Жанр: Документальный
Продолжительность: 00:43:40
Перевод: Профессиональный (многоголосый закадровый)
Русские субтитры: нет
Оригинальная аудиодорожка: нет
Телеканал: Discovery
IMDB: tt8686088
Описание: Душераздирающая история о детской футбольной команде, которые заблудились в пещерах на севере Таиланда, и о невероятной операции, предпринятой международной командой спасателей.
Sample
качество: HDTVRip
формат: MP4
Видео: AVC 888x512 (16:9) 25fps 1977kbps
Аудио: AAC 44100Hz stereo 128kbps

MediaInfo

General
Complete name : D:\В ловушке тайских пещер - Operation Thai Cave Rescue - 2018.mp4
Format : MPEG-4
Format profile : Base Media
Codec ID : isom (isom/iso2/avc1/mp41)
File size : 660 MiB
Duration : 43 min 39 s
Overall bit rate mode : Variable
Overall bit rate : 2 113 kb/s
Video
ID : 1
Format : AVC
Format/Info : Advanced Video Codec
Format profile : Main@L3.1
Format settings : CABAC / 1 Ref Frames
Format settings, CABAC : Yes
Format settings, ReFrames : 1 frame
Format settings, GOP : M=1, N=12
Codec ID : avc1
Codec ID/Info : Advanced Video Coding
Duration : 43 min 39 s
Duration_FirstFrame : 40 ms
Bit rate : 1 978 kb/s
Width : 888 pixels
Original width : 896 pixels
Height : 512 pixels
Original height : 504 pixels
Display aspect ratio : 16:9
Frame rate mode : Constant
Frame rate : 25.000 FPS
Standard : Component
Color space : YUV
Chroma subsampling : 4:2:0
Bit depth : 8 bits
Scan type : Progressive
Bits/(Pixel*Frame) : 0.174
Stream size : 618 MiB (94%)
Color range : Limited
Codec configuration box : avcC
Audio
ID : 2
Format : AAC
Format/Info : Advanced Audio Codec
Format profile : LC
Codec ID : mp4a-40-2
Duration : 43 min 39 s
Bit rate mode : Variable
Bit rate : 128 kb/s
Maximum bit rate : 209 kb/s
Channel(s) : 2 channels
Channel positions : Front: L R
Sampling rate : 44.1 kHz
Frame rate : 43.066 FPS (1024 SPF)
Compression mode : Lossy
Stream size : 40.0 MiB (6%)
mdhd_Duration : 2619861

Скриншоты

[torrents24.ru].t71598.torrent 
Торрент: Зарегистрирован [ 2019-01-21 16:20 ] · C115254811BDD57274BFF53936279E29A877D9CF

Скачать .torrent

Скачать

26 KB

Статус: проверено
Скачан: 0 раз
Размер: 660 MB

Профиль [ЛС]
Показать сообщения:    

Текущее время: 16-Фев 02:25

Часовой пояс: UTC + 3



Вы не можете начинать темы
Вы не можете отвечать на сообщения
Вы не можете редактировать свои сообщения
Вы не можете удалять свои сообщения
Вы не можете голосовать в опросах
Вы не можете прикреплять файлы к сообщениям
Вы можете скачивать файлы