Статистика раздачи
Размер:  3,89 GB   |    Зарегистрирован:  10 дней   |    Скачан:  0 раз

Полного источника не было: Никогда

 
   
 
 

mafil ®

Пол:
Не указан
Стаж:
10 месяцев 23 дня
Сообщений:
531

Происшествие - Дискография (10 CD)
Жанр: Rock
Носитель: CD, CD-R
Страна-производитель диска: Россия
Год издания: 2012 - 2018
Издатель (лейбл): Контр@банда
Страна: Россия
Аудиокодек: FLAC (*.flac)
Тип рипа: image+.cue
Битрейт аудио: lossless
Источник (релизер): собственные CD
Наличие сканов в содержимом раздачи: да (600 dpi, jpg)

2012 - Автостопом по облакам

Год издания:2012 (издан 2013)
Продолжительность: 00:47:43
Треклист:
1. Анна Каренина
2. Европа
3. Источник несчастий
4. Поцелуй в лифте
5. Игрушки
6. Две гадюки
7. Ром
8. Биг-мак буги
9. Московские каникулы
10. Ребята с нашего двора
11. Мы идём-едем в Питер
12. Молодой врач
13. Беломорканал
14. Автостопом по облакам
15. Крылья
16. Бездомный пёс по кличке Зима
17. Принцесса
18. Аисты несут моего ребёнка

Лог создания рипа

Exact Audio Copy V1.0 beta 3 from 29. August 2011
Отчёт EAC об извлечении, выполненном 6. декабря 2013, 22:19
Происшествие / Автостопом по облакам
Дисковод: ASUS DRW-1814BLT Adapter: 1 ID: 0
Режим чтения : Достоверность
Использование точного потока : Да
Отключение кэша аудио : Да
Использование указателей C2 : Нет
Коррекция смещения при чтении : 6
Способность читать области Lead-in и Lead-out : Нет
Заполнение пропущенных сэмплов тишиной : Да
Удаление блоков с тишиной в начале и конце : Нет
При вычислениях CRC использовались нулевые сэмплы : Да
Интерфейс : Встроенный Win32-интерфейс для Win NT/2000
Выходной формат : Пользовательский кодировщик
Выбранный битрейт : 128 kBit/s
Качество : Высокий
Добавление ID3-тега : Нет
Утилита сжатия : C:\Program Files (x86)\Exact Audio Copy\Flac\flac.exe
Дополнительные параметры : -V -8 -T "Date=%year%" -T "Genre=%genre%" %source%
TOC извлечённого CD
Трек | Старт | Длительность | Начальный сектор | Конечный сектор
---------------------------------------------------------------------
1 | 0:00.00 | 3:08.37 | 0 | 14136
2 | 3:08.37 | 2:28.43 | 14137 | 25279
3 | 5:37.05 | 2:07.74 | 25280 | 34878
4 | 7:45.04 | 2:38.07 | 34879 | 46735
5 | 10:23.11 | 2:32.48 | 46736 | 58183
6 | 12:55.59 | 2:44.27 | 58184 | 70510
7 | 15:40.11 | 1:53.15 | 70511 | 79000
8 | 17:33.26 | 3:21.66 | 79001 | 94141
9 | 20:55.17 | 2:34.14 | 94142 | 105705
10 | 23:29.31 | 2:54.58 | 105706 | 118813
11 | 26:24.14 | 2:09.19 | 118814 | 128507
12 | 28:33.33 | 2:26.30 | 128508 | 139487
13 | 30:59.63 | 2:11.05 | 139488 | 149317
14 | 33:10.68 | 2:44.11 | 149318 | 161628
15 | 35:55.04 | 3:26.25 | 161629 | 177103
16 | 39:21.29 | 3:07.60 | 177104 | 191188
17 | 42:29.14 | 2:00.65 | 191189 | 200253
18 | 44:30.04 | 3:13.21 | 200254 | 214749
Характеристики диапазона извлечения и сообщения об ошибках
Выбранный диапазон
Имя файла D:\µTorrent\Происшествие\2012 - Автостопом по облакам\Происшествие - Автостопом по облакам.wav
Пиковый уровень 98.8 %
Скорость извлечения 8.4 X
Качество диапазона 100.0 %
CRC теста 5FC55205
CRC копии 5FC55205
Копирование... OK
Ошибок не произошло
AccurateRip: сводка
Трек 1 отсутствует в базе данных
Трек 2 отсутствует в базе данных
Трек 3 отсутствует в базе данных
Трек 4 отсутствует в базе данных
Трек 5 отсутствует в базе данных
Трек 6 отсутствует в базе данных
Трек 7 отсутствует в базе данных
Трек 8 отсутствует в базе данных
Трек 9 отсутствует в базе данных
Трек 10 отсутствует в базе данных
Трек 11 отсутствует в базе данных
Трек 12 отсутствует в базе данных
Трек 13 отсутствует в базе данных
Трек 14 отсутствует в базе данных
Трек 15 отсутствует в базе данных
Трек 16 отсутствует в базе данных
Трек 17 отсутствует в базе данных
Трек 18 отсутствует в базе данных
Ни одного трека нет в базе AccurateRip
Конец отчёта
==== Контрольная сумма отчёта C6D10761746254E972550AED7584CB3206FB369F6876A3664362C8E3BACB5292 ====

Рецензия

Думаю, случилось событие, долгожданное для всех ценителей творчества «Происшествия» и его духовного родителя – Алексея Караковского. Группа шла к выпуску альбома не один год; композиции, вошедшие в его состав, в основном успели давно полюбиться публике. Не будучи искусствоведом или музыкальным критиком, не буду раскладывать альбом «на бемоли»; хочу лишь окинуть продукт беглым взглядом обычного слушателя.
Альбом «Автостопом по облакам» разнообразен и производит довольно сложное впечатление. Музыка задорная и бесшабашная (наподобие «Беломорканала» или «Молодого врача») сочетается здесь с песнями на темы важные и острые. «Коллективное лицо» (или тупую рожу) современной столицы как нельзя лучше отражает «Биг-мак буги»; «Ребята с нашего двора», которым лет уже, наверно, семь – с явным опережением – высветили «жареную» ныне подростково-сиротскую, беспризорническую «ювенальную» тематику. Любовь и глубокие личные переживания наполняют «Поцелуй в лифте», «Аистов», «Крылья». «Мы идём-едем в Питер», «Европа» – творения молодой ищущей и переживающей женской натуры, чей взгляд придает альбому свою неповторимую изюминку. Мудры, но ранимы «Две гадюки», исполненные с неповторимыми голосовыми раскладками. Ужасно жаль, что у нынешнего «Происшествия» вокал Натальи уже не звучит со сцены/ «Анна Каренина» просто непередаваема – ее надо слушать и впитывать. Даже в «игрушечной» теме исполнение, игривое по форме, таит в себе скрытое «двойное дно». Знать, Караковский недаром психолог, – умеет поиграть серьезным.
«Происшествие» берет новые рубежи. Темп жизни коллектива порой столь стремителен, что бытие группы явно опережает формы ее развития: сколько событий успело произойти, сколько составов группы поменяться, пока был выпущен этот альбом, – наверно, одному лишь Караковскому ведомо. Группа давно имеет свое лицо, но не устает экспериментировать. А главное – оставаться всегда задорной и юной (при разбросе возраста участников – от школьного до почти пенсионного. Наверно, это и есть «Происшествие», вечная «музыкальная Анчурия», от которой хоть иногда и грустно, но которая, вообще-то, дарит радость и вполне, как модно нынче говорить, «адекватно» передает палитру нашей жизни. Как «изнутри», так и «снаружи».
Николай Макаров

Об альбоме (сборнике)

Четырехполосный диджипак
Альбом «Автостопом по облакам» стал первой полноценной студийной записью коллектива.

Состав

Алексей Караковский - гитара, бас-гитара, вокал;
Наталья Караковская - вокал;
Дмитрий Петров - клавишные;
Янис Сурвилло - клавишные;
Катерина Филипенкова - клавишные;
Алексей Барашев - скрипка;
Сергей Мэо - бас;
Александр Умняшов - ударные.

2013 - Танцевать!

Год издания:2013
Продолжительность: 00:51:27
Треклист:
1. Бетонированный двор
2. Танцевать!
3. Зазеркалье
4. Фиалки
5. Приявший мир…
6. Мне страшно
7. Зов стали
8. Сиамский кот
9. Десять
10. Город просит дождя
11. Письма на стенах
12. Надежда без спроса
13. Бессмысленный мир
14. Татьянин день
15. Паутина
16. Наше время
17. Блюз одной точки

Лог создания рипа

Exact Audio Copy V1.0 beta 3 from 29. August 2011
Отчёт EAC об извлечении, выполненном 6. декабря 2013, 22:38
Происшествие / Танцевать!
Дисковод: ASUS DRW-1814BLT Adapter: 1 ID: 0
Режим чтения : Достоверность
Использование точного потока : Да
Отключение кэша аудио : Да
Использование указателей C2 : Нет
Коррекция смещения при чтении : 6
Способность читать области Lead-in и Lead-out : Нет
Заполнение пропущенных сэмплов тишиной : Да
Удаление блоков с тишиной в начале и конце : Нет
При вычислениях CRC использовались нулевые сэмплы : Да
Интерфейс : Встроенный Win32-интерфейс для Win NT/2000
Выходной формат : Пользовательский кодировщик
Выбранный битрейт : 128 kBit/s
Качество : Высокий
Добавление ID3-тега : Нет
Утилита сжатия : C:\Program Files (x86)\Exact Audio Copy\Flac\flac.exe
Дополнительные параметры : -V -8 -T "Date=%year%" -T "Genre=%genre%" %source%
TOC извлечённого CD
Трек | Старт | Длительность | Начальный сектор | Конечный сектор
---------------------------------------------------------------------
1 | 0:00.00 | 2:46.25 | 0 | 12474
2 | 2:46.25 | 3:06.67 | 12475 | 26491
3 | 5:53.17 | 2:19.61 | 26492 | 36977
4 | 8:13.03 | 4:07.31 | 36978 | 55533
5 | 12:20.34 | 2:35.56 | 55534 | 67214
6 | 14:56.15 | 2:51.41 | 67215 | 80080
7 | 17:47.56 | 3:35.07 | 80081 | 96212
8 | 21:22.63 | 3:29.46 | 96213 | 111933
9 | 24:52.34 | 2:39.15 | 111934 | 123873
10 | 27:31.49 | 2:15.56 | 123874 | 134054
11 | 29:47.30 | 2:23.11 | 134055 | 144790
12 | 32:10.41 | 2:29.56 | 144791 | 156021
13 | 34:40.22 | 2:46.41 | 156022 | 168512
14 | 37:26.63 | 2:26.50 | 168513 | 179512
15 | 39:53.38 | 3:02.68 | 179513 | 193230
16 | 42:56.31 | 4:55.62 | 193231 | 215417
17 | 47:52.18 | 3:35.10 | 215418 | 231552
Характеристики диапазона извлечения и сообщения об ошибках
Выбранный диапазон
Имя файла D:\µTorrent\Происшествие\2013 - Танцевать!\Происшествие - Танцевать!.wav
Пиковый уровень 97.7 %
Скорость извлечения 8.9 X
Качество диапазона 100.0 %
CRC теста 22AAED11
CRC копии 22AAED11
Копирование... OK
Ошибок не произошло
AccurateRip: сводка
Трек 1 отсутствует в базе данных
Трек 2 отсутствует в базе данных
Трек 3 отсутствует в базе данных
Трек 4 отсутствует в базе данных
Трек 5 отсутствует в базе данных
Трек 6 отсутствует в базе данных
Трек 7 отсутствует в базе данных
Трек 8 отсутствует в базе данных
Трек 9 отсутствует в базе данных
Трек 10 отсутствует в базе данных
Трек 11 отсутствует в базе данных
Трек 12 отсутствует в базе данных
Трек 13 отсутствует в базе данных
Трек 14 отсутствует в базе данных
Трек 15 отсутствует в базе данных
Трек 16 отсутствует в базе данных
Трек 17 отсутствует в базе данных
Ни одного трека нет в базе AccurateRip
Конец отчёта
==== Контрольная сумма отчёта DA13B45C39CDD99E2BC351C34C8A8757BFF54F920CDCF23E319FF4C1E88A84C0 ====

Рецензия

Илья Сайтанов, aka Розовый Слон - известный московский флейтист.
Группу «Проишествие» я застал на Арбате в первый год их существования, ходил их слушать на кротовники, и даже несколько раз выходил на сцену подыграть. Так что мой угол зрения специфичен: хочется понять, к чему пришли такие же как ты арбатские музыканты за двадцать почти лет, и как они теперь видят свои же песни. И то что напишу, будет, наверное, чуть больше, чем про этот один альбом.
Песни «Проишествия» хочется петь в компанию под гитару, лучше хором. «Нетелефонный разговор» я и сам до сих пор иногда так пою. Есть в них и распевные припевы, и местами почти поп-хуки, и пафосные «кульминации» со скачком мелодии вверх («Горят глаза твои горят», «Найдётся звезда»). Мешает только изобилие текста, получается – чтобы подпевать – необходимо хорошо знать песню. Вырастают песни явно от слов, музыка здесь набор шаблончиков, рамки, в которые текст аккуратно вкладывается как пирожки на противень. Особенно это заметно в «Бетонированном дворе», где в один и тот же такт сперва запихиваются четырнадцать слогов «входить очень тихо и курить лишь на балконе», а в следующем куплете уже девять: «время шло годы уходили». Текста при этом очень много, почти не остаётся места на проигрыши, паузы и выдох дают в основном риффовые брейки. Ещё одно последствие – переизбыточность. Слушателю объясняют всё и ещё немного, о недосказанности нет и речи. Хороший пример – последний куплет «Я знаю дерево»: «его корни как вены земли, Оно оплетает собою весь мир, И все остальные деревья — Лишь побеги от этого дерева».
Тексты песен неплохо передают постсовковую атмосферу арбатского хиппятника, где рядом такие же как ты, и это безмерно радует, но совершенно никакой конструктивной картинки впереди не предвидится. Чёрно-белый мир середины 90-х. Спасибо, вспомнил.
Лёша Караковский слегка переписал, скажем, припев в «Фиалках»– имеет право. Ну и пары песен тех лет тут, имхо, не хватает. Но в целом альбом записан аккуратно, спет нефальшиво – долг перед старыми песнями более-менее выполнен (ну может «Город просит дождя» сыгран скромновато).
Что дальше? Улица – хорошая школа, но плохая база. Лично мне в происходящем ужасно мало музыки. Дробь «число событий в тексте / число событий в музыке» – сильно больше единицы. Попроще формулируя – не получается представить концерт инструментальной музыки в исполнении тех же музыкантов. Всё же с надеждой на такой концерт в будущем,

Об альбоме (сборнике)

Четырёхполосный диджипак.
Второй официальный альбом группы "Происшествие". Все песни сочинены и исполнялись на концертах в 1994-1996 гг.
Альбом записан в 2011-2013 гг. на студии MYM Records.
Звук, сведение, мастеринг - Янис Сурвилло.
Музыка и слова А. Караковского, кроме:
3 - слова Анны Ахматовой (1963 г.);
5 - слова Александра Блока (1907 г.);
8 - слова при участии М. Гусмана;
10 - слова при участии Н. Караковской;
14 - музыка при участии Дмитрия Усачёва;
16 - слова и музыка Дмитрия Лихачёва;
17 - слова Сов Питерской.

Состав

Алексей Караковский - гитара, вокал
Михаил Гусман - бас, вокал (8, 11, 16)
Екатерина Филипенкова - клавишные
Александр Умняшов - ударные
Полина Чернэ - аккордеон (3, 5, 9, 11, 15)
Наталья Караковская - вокал (3, 6, 10, 16)
Арина Филипенкова - блок-флейта (3, 12)
Мария Смирнова - вокал (2).

2014 - Кафе Цветы

Год издания:2014
Продолжительность: 00:52:30
Треклист:
1. Таинственные цветы
2. Мы просто будем здесь жить!
3. Кафе Цветы
4. Нетелефонный разговор
5. Стальные облака
6. Скорбно Анастасия шла
7. Libertad o muerte!
8. Поля Арагона
9. Хозяин Вселенной
10. Дерево
11. Лесная сестра
12. Танцуй, смеясь
13. В Иваново дождь
14. Лодка
15. Каждый велосипедист
16. Моё имя Сергей Есенин

Лог создания рипа

Exact Audio Copy V1.0 beta 4 from 7. December 2014
Отчёт EAC об извлечении, выполненном 22. января 2015, 19:18
Происшествие / Кафе Цветы
Дисковод: TEAC DV-W524GSB Adapter: 1 ID: 0
Режим чтения : Достоверность
Использование точного потока : Да
Отключение кэша аудио : Да
Использование указателей C2 : Нет
Коррекция смещения при чтении : 6
Способность читать области Lead-in и Lead-out : Нет
Заполнение пропущенных сэмплов тишиной : Да
Удаление блоков с тишиной в начале и конце : Нет
При вычислениях CRC использовались нулевые сэмплы : Да
Интерфейс : Встроенный Win32-интерфейс для Win NT/2000
Выходной формат : Пользовательский кодировщик
Выбранный битрейт : 128 kBit/s
Качество : Высокий
Добавление ID3-тега : Нет
Утилита сжатия : C:\Program Files (x86)\FLAC\flac.exe
Дополнительные параметры : -V -8 -T "Date=%year%" -T "Genre=%genre%" %source%
TOC извлечённого CD
Трек | Старт | Длительность | Начальный сектор | Конечный сектор
---------------------------------------------------------------------
1 | 0:00.00 | 3:45.15 | 0 | 16889
2 | 3:45.15 | 3:12.53 | 16890 | 31342
3 | 6:57.68 | 3:57.09 | 31343 | 49126
4 | 10:55.02 | 3:21.13 | 49127 | 64214
5 | 14:16.15 | 3:08.73 | 64215 | 78387
6 | 17:25.13 | 4:39.67 | 78388 | 99379
7 | 22:05.05 | 3:16.10 | 99380 | 114089
8 | 25:21.15 | 3:13.14 | 114090 | 128578
9 | 28:34.29 | 2:57.66 | 128579 | 141919
10 | 31:32.20 | 3:04.37 | 141920 | 155756
11 | 34:36.57 | 3:36.71 | 155757 | 172027
12 | 38:13.53 | 2:28.32 | 172028 | 183159
13 | 40:42.10 | 2:44.28 | 183160 | 195487
14 | 43:26.38 | 2:19.54 | 195488 | 205966
15 | 45:46.17 | 2:32.33 | 205967 | 217399
16 | 48:18.50 | 4:11.05 | 217400 | 236229
Характеристики диапазона извлечения и сообщения об ошибках
Выбранный диапазон
Имя файла D:\Desktop\диски\Происшествие\Кафе Цветы\Происшествие - Кафе Цветы.wav
Пиковый уровень 95.0 %
Скорость извлечения 6.2 X
Качество диапазона 100.0 %
CRC теста 74E16A46
CRC копии 74E16A46
Копирование... OK
Ошибок не произошло
AccurateRip: сводка
Трек 1 отсутствует в базе данных
Трек 2 отсутствует в базе данных
Трек 3 отсутствует в базе данных
Трек 4 отсутствует в базе данных
Трек 5 отсутствует в базе данных
Трек 6 отсутствует в базе данных
Трек 7 отсутствует в базе данных
Трек 8 отсутствует в базе данных
Трек 9 отсутствует в базе данных
Трек 10 отсутствует в базе данных
Трек 11 отсутствует в базе данных
Трек 12 отсутствует в базе данных
Трек 13 отсутствует в базе данных
Трек 14 отсутствует в базе данных
Трек 15 отсутствует в базе данных
Трек 16 отсутствует в базе данных
Ни одного трека нет в базе AccurateRip
Конец отчёта
==== Контрольная сумма отчёта 1EAE35B9E560C7928D4BC3CEACD71CA2D0B22A38F2C1FEE3DE374291CBF873BD ====

Об альбоме (сборнике)

Jewel box, 4-стр. буклет
1-16 — музыка и слова Алексея Караковского.
Третий официальный альбом группы "Происшествие".
Песни написаны в 1994-1996 гг. ("Лесная сестра" в 1998 г.)
Записано в студии MYM Records в 2011-2012 гг.

Состав

Алексей Караковский — вокал, гитара, банджо (3);
Михаил Гусман — бас-гитара;
Полина Чернэ — аккордеон;
Екатерина Филипенкова — клавишные (1, 2, 4, 5, 6, 9, 10, 11, 15);
Александр Умняшов — ударные (1, 2, 4-7, 9-11, 14-16);
Светлана Воронцова — флейта (3, 8, 13);
Алексей Старчихин — кахон (3, 13);
Мария Смирнова — вокал (2, 16);
Наталья Караковская — вокал (6, 15);
Людмила Мешкова — вокал (14);
Дмитрий Петров — клавишные (8);
Ольга Скулаченко — флейта (16);
Янис Сурвило — запись, сведение, электронные ударные (12), мастеринг.

2014 - Северная земля

Год издания:2014
Продолжительность: 00:58:13
Треклист:
1. Если ты любишь
2. Страсбург
3. Смерть полковника
4. Огонь на себя
5. Свободная Сибирь
6. Арктика
7. Лучший город на Земле
8. Мухи
9. Лет ит би
10. Транзит-Урал
11. Север
12. Св. Фока
13. На станции Тайга
14. Владимир Путин родился в Симбирске
15. Никита Михалков
16. Куранах-Сала
17. Северная земля (Катерина читает письма)

Лог создания рипа

Exact Audio Copy V1.0 beta 4 from 7. December 2014
Отчёт EAC об извлечении, выполненном 22. января 2015, 19:52
Происшествие / Северная земля
Дисковод: TEAC DV-W524GSB Adapter: 1 ID: 0
Режим чтения : Достоверность
Использование точного потока : Да
Отключение кэша аудио : Да
Использование указателей C2 : Нет
Коррекция смещения при чтении : 6
Способность читать области Lead-in и Lead-out : Нет
Заполнение пропущенных сэмплов тишиной : Да
Удаление блоков с тишиной в начале и конце : Нет
При вычислениях CRC использовались нулевые сэмплы : Да
Интерфейс : Встроенный Win32-интерфейс для Win NT/2000
Выходной формат : Пользовательский кодировщик
Выбранный битрейт : 128 kBit/s
Качество : Высокий
Добавление ID3-тега : Нет
Утилита сжатия : C:\Program Files (x86)\FLAC\flac.exe
Дополнительные параметры : -V -8 -T "Date=%year%" -T "Genre=%genre%" %source%
TOC извлечённого CD
Трек | Старт | Длительность | Начальный сектор | Конечный сектор
---------------------------------------------------------------------
1 | 0:00.00 | 3:41.45 | 0 | 16619
2 | 3:41.45 | 2:19.40 | 16620 | 27084
3 | 6:01.10 | 3:06.18 | 27085 | 41052
4 | 9:07.28 | 2:38.66 | 41053 | 52968
5 | 11:46.19 | 3:13.27 | 52969 | 67470
6 | 14:59.46 | 2:53.17 | 67471 | 80462
7 | 17:52.63 | 2:42.27 | 80463 | 92639
8 | 20:35.15 | 4:10.49 | 92640 | 111438
9 | 24:45.64 | 3:44.37 | 111439 | 128275
10 | 28:30.26 | 3:43.19 | 128276 | 145019
11 | 32:13.45 | 2:42.60 | 145020 | 157229
12 | 34:56.30 | 2:14.45 | 157230 | 167324
13 | 37:11.00 | 4:19.42 | 167325 | 186791
14 | 41:30.42 | 2:57.07 | 186792 | 200073
15 | 44:27.49 | 2:30.38 | 200074 | 211361
16 | 46:58.12 | 4:05.15 | 211362 | 229751
17 | 51:03.27 | 7:09.20 | 229752 | 261946
Характеристики диапазона извлечения и сообщения об ошибках
Выбранный диапазон
Имя файла D:\Desktop\диски\Происшествие\Северная земля\Происшествие - Северная земля.wav
Пиковый уровень 97.7 %
Скорость извлечения 6.3 X
Качество диапазона 99.9 %
CRC теста F627E58A
CRC копии F627E58A
Копирование... OK
Ошибок не произошло
AccurateRip: сводка
Трек 1 отсутствует в базе данных
Трек 2 отсутствует в базе данных
Трек 3 отсутствует в базе данных
Трек 4 отсутствует в базе данных
Трек 5 отсутствует в базе данных
Трек 6 отсутствует в базе данных
Трек 7 отсутствует в базе данных
Трек 8 отсутствует в базе данных
Трек 9 отсутствует в базе данных
Трек 10 отсутствует в базе данных
Трек 11 отсутствует в базе данных
Трек 12 отсутствует в базе данных
Трек 13 отсутствует в базе данных
Трек 14 отсутствует в базе данных
Трек 15 отсутствует в базе данных
Трек 16 отсутствует в базе данных
Трек 17 отсутствует в базе данных
Ни одного трека нет в базе AccurateRip
Конец отчёта
==== Контрольная сумма отчёта D909321731B287EA1C26F53981ED27DCC23CF76F2A907F48F82CE952BF54284D ====

Об альбоме (сборнике)

Jewel box, 4-стр. буклет
1-17 — музыка и слова Алексея Караковского.
Четвёртый официальный альбом группы "Происшествие". Песни написаны в 2008-2013 гг.
Записано в студии MYM Records в 2011-2013 гг.

Состав

Алексей Караковский — вокал, гитара, банджо (16);
Михаил Гусман — бас-гитара;
Полина Чернэ — аккордеон;
Александр Умняшов — ударные;
Катерина Гервагина — клавишные (6, 9, 11, 14);
Екатерина Филипенкова — клавишные (1, 12);
Сергей Краснопольский — контрабас (8), вокал (8);
Наталья Караковская — вокал (3);
Анастасия Диевская — вокал (5);
Юлия Тузова — вокал (13);
Арина Филипенкова — флейта (1);
Ольга Скулаченко — флейта (14);
Янис Сурвило — запись, сведение, клавишные (4), электронные ударные (16), мастеринг.

2014 - Простая музыка

Год издания:2014
Продолжительность: 00:58:22
Треклист:
1. Садовое кольцо
2. Вечерний чай
3. В конце января
4. По Старосадскому переулку
5. Кофе с коньяком
6. Дождь
7. Не звони мне, мама!
8. Соседка
9. Она любит весну
10. Песня ангела-хранителя
11. Блюз первой попытки
12. Я ещё приду сюда
13. Маленькая ведьма
14. Романс
15. Песенка о сентиментальном рыцаре
16. Воробушек
17. Не тормози!
18. Самолёт
19. Выше крыши
20. Кошка
21. Я неадекватен!
22. Мы поём

Лог создания рипа

Exact Audio Copy V1.0 beta 4 from 7. December 2014
Отчёт EAC об извлечении, выполненном 22. января 2015, 20:17
Происшествие / Простая музыка
Дисковод: TEAC DV-W524GSB Adapter: 1 ID: 0
Режим чтения : Достоверность
Использование точного потока : Да
Отключение кэша аудио : Да
Использование указателей C2 : Нет
Коррекция смещения при чтении : 6
Способность читать области Lead-in и Lead-out : Нет
Заполнение пропущенных сэмплов тишиной : Да
Удаление блоков с тишиной в начале и конце : Нет
При вычислениях CRC использовались нулевые сэмплы : Да
Интерфейс : Встроенный Win32-интерфейс для Win NT/2000
Выходной формат : Пользовательский кодировщик
Выбранный битрейт : 128 kBit/s
Качество : Высокий
Добавление ID3-тега : Нет
Утилита сжатия : C:\Program Files (x86)\FLAC\flac.exe
Дополнительные параметры : -V -8 -T "Date=%year%" -T "Genre=%genre%" %source%
TOC извлечённого CD
Трек | Старт | Длительность | Начальный сектор | Конечный сектор
---------------------------------------------------------------------
1 | 0:00.00 | 3:23.07 | 0 | 15231
2 | 3:23.07 | 2:29.28 | 15232 | 26434
3 | 5:52.35 | 3:54.49 | 26435 | 44033
4 | 9:47.09 | 2:32.35 | 44034 | 55468
5 | 12:19.44 | 3:01.51 | 55469 | 69094
6 | 15:21.20 | 3:34.10 | 69095 | 85154
7 | 18:55.30 | 2:17.00 | 85155 | 95429
8 | 21:12.30 | 2:47.67 | 95430 | 108021
9 | 24:00.22 | 2:04.49 | 108022 | 117370
10 | 26:04.71 | 2:17.00 | 117371 | 127645
11 | 28:21.71 | 2:53.00 | 127646 | 140620
12 | 31:14.71 | 2:32.73 | 140621 | 152093
13 | 33:47.69 | 2:53.25 | 152094 | 165093
14 | 36:41.19 | 2:14.56 | 165094 | 175199
15 | 38:56.00 | 3:58.19 | 175200 | 193068
16 | 42:54.19 | 1:30.06 | 193069 | 199824
17 | 44:24.25 | 2:26.22 | 199825 | 210796
18 | 46:50.47 | 2:34.19 | 210797 | 222365
19 | 49:24.66 | 2:23.22 | 222366 | 233112
20 | 51:48.13 | 1:47.00 | 233113 | 241137
21 | 53:35.13 | 2:48.21 | 241138 | 253758
22 | 56:23.34 | 1:58.10 | 253759 | 262618
Характеристики диапазона извлечения и сообщения об ошибках
Выбранный диапазон
Имя файла D:\Desktop\диски\Происшествие\Простая музыка\Происшествие - Простая музыка.wav
Пиковый уровень 93.3 %
Скорость извлечения 6.3 X
Качество диапазона 99.9 %
CRC теста 802FBDE9
CRC копии 802FBDE9
Копирование... OK
Ошибок не произошло
AccurateRip: сводка
Трек 1 отсутствует в базе данных
Трек 2 отсутствует в базе данных
Трек 3 отсутствует в базе данных
Трек 4 отсутствует в базе данных
Трек 5 отсутствует в базе данных
Трек 6 отсутствует в базе данных
Трек 7 отсутствует в базе данных
Трек 8 отсутствует в базе данных
Трек 9 отсутствует в базе данных
Трек 10 отсутствует в базе данных
Трек 11 отсутствует в базе данных
Трек 12 отсутствует в базе данных
Трек 13 отсутствует в базе данных
Трек 14 отсутствует в базе данных
Трек 15 отсутствует в базе данных
Трек 16 отсутствует в базе данных
Трек 17 отсутствует в базе данных
Трек 18 отсутствует в базе данных
Трек 19 отсутствует в базе данных
Трек 20 отсутствует в базе данных
Трек 21 отсутствует в базе данных
Трек 22 отсутствует в базе данных
Ни одного трека нет в базе AccurateRip
Конец отчёта
==== Контрольная сумма отчёта 97B16E16AB84E80D4CEFB24EA04BB433F44FDCCA78110C3B101186C1C0B73AB7 ====

Об альбоме (сборнике)

Jewel box, 4-стр. буклет
1-4, 6-8, 10-22 — музыка и слова Алексея Караковского;
5 - музыка и слова Алексея и Владимира Караковских;
9 - музыка Дмитрия Петрова, слова Алексея Караковского.
Пятый официальный альбом группы "Происшествие". Песни написаны в 1998-2013 гг.
Записано в студии MYM Records в 2013-2014 гг. официальное окончание работы над альбомом - 16 декабря 2014 года.

Состав

Алексей Караковский — вокал, гитара, губная гармошка (7, 11);
Михаил Гусман — бас-гитара, вокал (22);
Катерина Гервагина — клавишные, вокал (3, 6, 11-14, 20, 22);
Арина Филипенкова — флейта (2), валторна (1, 6);
Алексей Старчихин — перкуссия, вокал (1);
Катерина Филипенкова — клавишные (16, 18);
Дмитрий Петров — клавишные (1, 3);
Анастасия Диевская — вокал (1, 5, 7, 9);
Семён Ильягуев — вокал (12);
Янис Сурвило — запись, сведение, мастеринг.

2015 - Виктимология

Год издания: 2015
Носитель: CD-R
Продолжительность: 00:59:38
Треклист:
1. Снится сон, как приходящий поезд... / Конец детства
2. На другом конце Земли
3. Нарушай закон
4. Вспомни о доме
5. Инопланетянка
6. Воздушный шар
7. Погладь меня по голове
8. Революция без цветов
9. Волны бегут надо мной... / Части речи
10. Кукольный вальс
11. Восьмое марта
12. Тарелки
13. Москва, я не люблю тебя
14. Я умру в метро
15. Сны / Танец Ахамот

Лог создания рипа

Exact Audio Copy V1.0 beta 6 from 9. April 2015
Отчёт EAC об извлечении, выполненном 18. июня 2015, 15:26
Происшествие / Виктимология
Дисковод: TEAC DV-W524GSB Adapter: 1 ID: 0
Режим чтения : Достоверность
Использование точного потока : Да
Отключение кэша аудио : Да
Использование указателей C2 : Нет
Коррекция смещения при чтении : 6
Способность читать области Lead-in и Lead-out : Нет
Заполнение пропущенных сэмплов тишиной : Да
Удаление блоков с тишиной в начале и конце : Нет
При вычислениях CRC использовались нулевые сэмплы : Да
Интерфейс : Встроенный Win32-интерфейс для Win NT/2000
Выходной формат : Пользовательский кодировщик
Выбранный битрейт : 128 kBit/s
Качество : Высокий
Добавление ID3-тега : Нет
Утилита сжатия : C:\Program Files (x86)\FLAC\flac.exe
Дополнительные параметры : -V -8 -T "Date=%year%" -T "Genre=%genre%" %source%
TOC извлечённого CD
Трек | Старт | Длительность | Начальный сектор | Конечный сектор
---------------------------------------------------------------------
1 | 0:00.00 | 4:34.54 | 0 | 20603
2 | 4:34.54 | 3:33.04 | 20604 | 36582
3 | 8:07.58 | 3:39.66 | 36583 | 53073
4 | 11:47.49 | 3:01.52 | 53074 | 66700
5 | 14:49.26 | 3:21.02 | 66701 | 81777
6 | 18:10.28 | 3:58.48 | 81778 | 99675
7 | 22:09.01 | 2:48.73 | 99676 | 112348
8 | 24:57.74 | 2:35.11 | 112349 | 123984
9 | 27:33.10 | 4:12.60 | 123985 | 142944
10 | 31:45.70 | 1:57.17 | 142945 | 151736
11 | 33:43.12 | 3:37.00 | 151737 | 168011
12 | 37:20.12 | 4:08.41 | 168012 | 186652
13 | 41:28.53 | 2:35.37 | 186653 | 198314
14 | 44:04.15 | 5:06.26 | 198315 | 221290
15 | 49:10.41 | 10:27.57 | 221291 | 268372
Характеристики диапазона извлечения и сообщения об ошибках
Выбранный диапазон
Имя файла D:\Desktop\2015 - Виктимология\Происшествие - Виктимология.wav
Пиковый уровень 98.8 %
Скорость извлечения 6.4 X
Качество диапазона 99.9 %
CRC теста A5CE8EF2
CRC копии A5CE8EF2
Копирование... OK
Ошибок не произошло
AccurateRip: сводка
Трек 1 отсутствует в базе данных
Трек 2 отсутствует в базе данных
Трек 3 отсутствует в базе данных
Трек 4 отсутствует в базе данных
Трек 5 отсутствует в базе данных
Трек 6 отсутствует в базе данных
Трек 7 отсутствует в базе данных
Трек 8 отсутствует в базе данных
Трек 9 отсутствует в базе данных
Трек 10 отсутствует в базе данных
Трек 11 отсутствует в базе данных
Трек 12 отсутствует в базе данных
Трек 13 отсутствует в базе данных
Трек 14 отсутствует в базе данных
Трек 15 отсутствует в базе данных
Ни одного трека нет в базе AccurateRip
Конец отчёта
==== Контрольная сумма отчёта BAEF44EBE0059530DE6DA3524704650CC9F6DF1CF5F3A1ACD891CFADE77C45BC ====

Об альбоме (сборнике)

Jewel box, 4-стр. буклет
1-9, 11-14 — музыка и слова Алексея Караковского;
1,9 - стихи Евгении Ульянкиной ("Снится сон, как приходящий поезд", "Волны плывут надо мной");
9 - использовано стихотворение Алексея Кручёных "Дыр бул щил";
10 - музыка Алексея Караковского, слова Ольги Аникиной;
15 - музыка Алексея Караковского и Макса Гурина, слова Алексея Караковского ("Сны") и Ксении Болдыревой.
Шестой официальный альбом группы "Происшествие".
Песни написаны в 2013-2015 гг., за исключением "Сны" (1995), "Я умру в метро" (1997), "Погладь меня по голове" (1998), "Конец детства" (1999), "Вспомни о доме" (2005), "Революция без цветов" (2012).
Записано в студии MYM Records в 2014-2015 гг (звукорежиссёр Ян Сурвилло). Композиция "Танец Ахамот" записана на студии "Синтез-3" (звукорежиссёр Макс Гурин).
Официальное окончание работы над альбомом - 13 апреля 2015 года.

Состав

Алексей Караковский — вокал, гитара, декламация (9, 15);
Михаил Гусман — бас-гитара, вокал (1, 4, 9), бэк-вокал (3, 14);
Катерина Гервагина — клавишные, бэк-вокал (2, 4-6, 11, 12, 14);
Арина Филипенкова — флейта (6), валторна (2, 5, 10, 14);
Тимофей Ляховский — кларнет (1, 4, 7, 9, 11-14);
Александр Баранов — ударные (1-12, 14);
Макс Гурин — клавишные (15), электронные ударные (15), гитара (15);
Евгения Ульянкина — декламация (1, 9);
Владислава Рукавишникова — вокал (13), декламация (15);
Катерина Артемьева — скрипка (6);
Андрей Кузечкин — губная гармошка (11);
Янис Сурвило — электронные ударные (13), клавишные (13), запись, сведение, мастеринг.

2015 - Достоевский

Год издания: 2015
Носитель: CD-R
Продолжительность: 00:57:11
Треклист:
1. Книжная лавка на старом проспекте
2. Доктор Антонов
3. Госпитальный вал
4. Уходи от меня
5. Мой внутренний Чехов
6. Афродизиак
7. Удовольствие от жизни
8. Все женщины
9. Музыка закончилась
10. Дина на льдине
11. У генерала Эйзенхауэра...
12. Англичанин в Улан-Удэ
13. Каберне
14. Чёрный фельдшер
15. Достоевский
16. Аркадий Иванович едет в Америку
17. Как холодно, мой ангел…

Лог создания рипа

Exact Audio Copy V1.1 from 23. June 2015
Отчёт EAC об извлечении, выполненном 6. ноября 2015, 18:05
Происшествие / Достоевский
Дисковод: TEAC DV-W524GSB Adapter: 1 ID: 0
Режим чтения : Достоверность
Использование точного потока : Да
Отключение кэша аудио : Да
Использование указателей C2 : Нет
Коррекция смещения при чтении : 6
Способность читать области Lead-in и Lead-out : Нет
Заполнение пропущенных сэмплов тишиной : Да
Удаление блоков с тишиной в начале и конце : Нет
При вычислениях CRC использовались нулевые сэмплы : Да
Интерфейс : Встроенный Win32-интерфейс для Win NT/2000
Выходной формат : Пользовательский кодировщик
Выбранный битрейт : 128 kBit/s
Качество : Высокий
Добавление ID3-тега : Нет
Утилита сжатия : C:\Program Files (x86)\FLAC\flac.exe
Дополнительные параметры : -V -8 -T "Date=%year%" -T "Genre=%genre%" %source%
TOC извлечённого CD
Трек | Старт | Длительность | Начальный сектор | Конечный сектор
---------------------------------------------------------------------
1 | 0:00.00 | 5:26.69 | 0 | 24518
2 | 5:26.69 | 4:38.63 | 24519 | 45431
3 | 10:05.57 | 3:31.62 | 45432 | 61318
4 | 13:37.44 | 3:17.00 | 61319 | 76093
5 | 16:54.44 | 3:11.11 | 76094 | 90429
6 | 20:05.55 | 2:50.19 | 90430 | 103198
7 | 22:55.74 | 3:22.05 | 103199 | 118353
8 | 26:18.04 | 2:54.33 | 118354 | 131436
9 | 29:12.37 | 4:20.43 | 131437 | 150979
10 | 33:33.05 | 1:57.21 | 150980 | 159775
11 | 35:30.26 | 2:36.23 | 159776 | 171498
12 | 38:06.49 | 2:49.00 | 171499 | 184173
13 | 40:55.49 | 2:33.42 | 184174 | 195690
14 | 43:29.16 | 2:33.32 | 195691 | 207197
15 | 46:02.48 | 4:41.11 | 207198 | 228283
16 | 50:43.59 | 2:40.07 | 228284 | 240290
17 | 53:23.66 | 3:46.54 | 240291 | 257294
Характеристики диапазона извлечения и сообщения об ошибках
Выбранный диапазон
Имя файла D:\Desktop\диски\Происшествие\2015 - Достоевский\Происшествие - Достоевский.wav
Пиковый уровень 99.9 %
Скорость извлечения 6.4 X
Качество диапазона 100.0 %
CRC теста BD08EF3C
CRC копии BD08EF3C
Копирование... OK
Ошибок не произошло
AccurateRip: сводка
Трек 1 отсутствует в базе данных
Трек 2 отсутствует в базе данных
Трек 3 отсутствует в базе данных
Трек 4 отсутствует в базе данных
Трек 5 отсутствует в базе данных
Трек 6 отсутствует в базе данных
Трек 7 отсутствует в базе данных
Трек 8 отсутствует в базе данных
Трек 9 отсутствует в базе данных
Трек 10 отсутствует в базе данных
Трек 11 отсутствует в базе данных
Трек 12 отсутствует в базе данных
Трек 13 отсутствует в базе данных
Трек 14 отсутствует в базе данных
Трек 15 отсутствует в базе данных
Трек 16 отсутствует в базе данных
Трек 17 отсутствует в базе данных
Ни одного трека нет в базе AccurateRip
Конец отчёта
==== Контрольная сумма отчёта BF2FB1F134E316014BAF98F859847DDF8B26008187C63D5701D17F710038E0A2 ====

Об альбоме (сборнике)

Конверт, CD-R, авторское издание.
Седьмой официальный альбом группы "Происшествие". Песни написаны в 2010-2013 гг., за исключением "У генерала Эйзенхауэра" (1997), "Чёрный фельдшер" (1998), "Как холодно, мой ангел…" (2014). Записано в студии MYM Records в 2013-2015 гг (звукорежиссёр Ян Сурвилло). Художественное оформление - Михаил Гусман. Официальное окончание работы над альбомом - 13 октября 2015 года.
1, 3-15, 17 — музыка и слова Алексея Караковского;
2 - музыка Алексея Караковского и Катерины Гервагиной, слова Алексея Караковского;
16 - музыка и слова Александра Непомнящего.
Группа выражает благодарность Светлане Анисимовой за помощь во время записи альбома.

Состав

Алексей Караковский — вокал, гитара, банджо (11, 13, 14);
Михаил Гусман — бас-гитара, бэк-вокал (4, 7, 14, 15), основной вокал (16);
Катерина Гервагина — клавишные;
Тимофей Ляховский — кларнет, флейта (5, 7);
Александр Баранов — ударные;
Арина Филипенкова — валторна (2, 4, 5, 11, 14);
Александр Головчанский — аккордеон (6, 8, 9);
Владислава Рукавишникова — вокал (14);
Янис Сурвило — запись, сведение, мастеринг.

2016 - Интифада

Год издания: 2016
Носитель: CD-R
Продолжительность: 00:59:02
Треклист:
1, Майор Савельев
2. Гуманоид
3. Мой сосед убьёт меня
4. Интифада
5. Дело врачей
6. Красная луна
7. Ленин
8. Конец Хитрова рынка
9. Аракчеев мёртв
10. Кто убит
11. Художники
12. Я никому не нужен
13. Засада (вокал - Гусман)
14. Тараканьи миры
15. Обвал в шахте
16. Все наши уже там
17. Я возрождаюсь
18. Пыль
19. Навсегда
20. Раненая птица набирает высоту
21. Животные
22. Дом самоубийц
23. Мне сложно верить

Лог создания рипа

Exact Audio Copy V1.1 from 23. June 2015
Отчёт EAC об извлечении, выполненном 30. июня 2016, 17:38
Происшествие / Интифада
Дисковод: TEAC DV-W524GSB Adapter: 1 ID: 0
Режим чтения : Достоверность
Использование точного потока : Да
Отключение кэша аудио : Да
Использование указателей C2 : Нет
Коррекция смещения при чтении : 6
Способность читать области Lead-in и Lead-out : Нет
Заполнение пропущенных сэмплов тишиной : Да
Удаление блоков с тишиной в начале и конце : Нет
При вычислениях CRC использовались нулевые сэмплы : Да
Интерфейс : Встроенный Win32-интерфейс для Win NT/2000
Выходной формат : Пользовательский кодировщик
Выбранный битрейт : 128 kBit/s
Качество : Высокий
Добавление ID3-тега : Нет
Утилита сжатия : C:\Program Files (x86)\FLAC\flac.exe
Дополнительные параметры : -V -8 -T "Date=%year%" -T "Genre=%genre%" %source%
TOC извлечённого CD
Трек | Старт | Длительность | Начальный сектор | Конечный сектор
---------------------------------------------------------------------
1 | 0:00.00 | 3:14.19 | 0 | 14568
2 | 3:14.19 | 3:10.34 | 14569 | 28852
3 | 6:24.53 | 1:59.67 | 28853 | 37844
4 | 8:24.45 | 2:24.08 | 37845 | 48652
5 | 10:48.53 | 2:51.63 | 48653 | 61540
6 | 13:40.41 | 2:58.48 | 61541 | 74938
7 | 16:39.14 | 2:50.19 | 74939 | 87707
8 | 19:29.33 | 2:11.55 | 87708 | 97587
9 | 21:41.13 | 3:01.16 | 97588 | 111178
10 | 24:42.29 | 1:01.31 | 111179 | 115784
11 | 25:43.60 | 3:44.08 | 115785 | 132592
12 | 29:27.68 | 3:12.68 | 132593 | 147060
13 | 32:40.61 | 2:28.35 | 147061 | 158195
14 | 35:09.21 | 1:22.24 | 158196 | 164369
15 | 36:31.45 | 1:57.36 | 164370 | 173180
16 | 38:29.06 | 2:10.31 | 173181 | 182961
17 | 40:39.37 | 2:05.16 | 182962 | 192352
18 | 42:44.53 | 1:54.70 | 192353 | 200972
19 | 44:39.48 | 2:02.02 | 200973 | 210124
20 | 46:41.50 | 2:46.04 | 210125 | 222578
21 | 49:27.54 | 2:14.24 | 222579 | 232652
22 | 51:42.03 | 3:58.08 | 232653 | 250510
23 | 55:40.11 | 3:22.11 | 250511 | 265671
Характеристики диапазона извлечения и сообщения об ошибках
Выбранный диапазон
Имя файла D:\Desktop\диски\Происшествие\2016 - Интифада\Происшествие - Интифада.wav
Пиковый уровень 99.5 %
Скорость извлечения 6.4 X
Качество диапазона 100.0 %
CRC теста A94A4E01
CRC копии A94A4E01
Копирование... OK
Ошибок не произошло
AccurateRip: сводка
Трек 1 отсутствует в базе данных
Трек 2 отсутствует в базе данных
Трек 3 отсутствует в базе данных
Трек 4 отсутствует в базе данных
Трек 5 отсутствует в базе данных
Трек 6 отсутствует в базе данных
Трек 7 отсутствует в базе данных
Трек 8 отсутствует в базе данных
Трек 9 отсутствует в базе данных
Трек 10 отсутствует в базе данных
Трек 11 отсутствует в базе данных
Трек 12 отсутствует в базе данных
Трек 13 отсутствует в базе данных
Трек 14 отсутствует в базе данных
Трек 15 отсутствует в базе данных
Трек 16 отсутствует в базе данных
Трек 17 отсутствует в базе данных
Трек 18 отсутствует в базе данных
Трек 19 отсутствует в базе данных
Трек 20 отсутствует в базе данных
Трек 21 отсутствует в базе данных
Трек 22 отсутствует в базе данных
Трек 23 отсутствует в базе данных
Ни одного трека нет в базе AccurateRip
Конец отчёта
==== Контрольная сумма отчёта 9FBE6769354AC0406A1EB5DDAA22BA2D72575529EA5CBDC86D6F2D134B340DF7 ====

Об альбоме (сборнике)

Конверт, CD-R.
Восьмой официальный альбом группы "Происшествие".
Песни написаны в 2011-2015 гг., за исключением "Тараканьи миры" (1992), "Пыль" (1993), "Я возрождаюсь", "Конец Хитрова Рынка", "Аракчеев мёртв!", "Обвал в шахте" (1994), "Засада" (2007). Записано в студии MYM Records в 2015-16 гг (звукорежиссёр Ян Сурвилло). Художественное оформление - Алексей Караковский.
Официальное окончание работы над альбомом - 13 января 2016 года.
Группа выражает благодарность Светлане Анисимовой за помощь во время записи альбома.

Состав

Алексей Караковский — вокал, гитара, бас-гитара;
Михаил Гусман — бас-гитара, бэк-вокал (5, 8, 9, 21), основной вокал (13);
Катерина Гервагина — клавишные (1);
Тимофей Ляховский — кларнет, флейта;
Александр Баранов — ударные (1, 2, 5, 6, 8-23);
Владислава Рукавишникова — голос (1), вокал (6, 23);
Янис Сурвило — электронные ударные (3, 4, 7), запись, сведение, мастеринг.
1-5, 7-20, 22, 23 — музыка и слова Алексея Караковского;
6 - музыка "Banda Basotti", слова Алексея Караковского;
21 - музыка Вячеслава Памурзина, слова Анри Волохонского.
В песне "Майор Савельев" использована запись тамильского католического богослужения, сделанная Викой Сушко в Кафедральном соборе святой Девы Марии, г. Баттикалоа, Шри-Ланка (январь 2015 года).

2016 - Радио Арктика

Год издания: 2016
Носитель: CD-R
Продолжительность: 01:00:44
Треклист:
1. Радио Арктика
2. Три реки
3. Ликвидация
4. Иван Никитич был мёртв
5. Соловецким узникам
6. Собачья смерть (feat. «Херес Янг»)
7. Чаечка
8. Мы уходим в катакомбы
9. Навстречу смерти своей
10. Советским поэтам
11. По дорогам, по чужим краям
12. Киевская осень
13. Освенцим
14. Ушедшим в эту ночь
15. Антифашист
16. Когда мы войдём в Москву
17. Город Молога
18. Моя революция
19. Юродивый
«Давно хочется мне записать: почаще смотрите на звезды. Когда будет на душе плохо, выйдите на воздух и останьтесь наедине с небом. Тогда душа успокоится»
о. Павел (Флоренский)

Лог создания рипа

Exact Audio Copy V1.1 from 23. June 2015
Отчёт EAC об извлечении, выполненном 15. декабря 2016, 12:58
Происшествие / Радио Арктика
Дисковод: TEAC DV-W524GSB Adapter: 1 ID: 0
Режим чтения : Достоверность
Использование точного потока : Да
Отключение кэша аудио : Да
Использование указателей C2 : Нет
Коррекция смещения при чтении : 6
Способность читать области Lead-in и Lead-out : Нет
Заполнение пропущенных сэмплов тишиной : Да
Удаление блоков с тишиной в начале и конце : Нет
При вычислениях CRC использовались нулевые сэмплы : Да
Интерфейс : Встроенный Win32-интерфейс для Win NT/2000
Выходной формат : Пользовательский кодировщик
Выбранный битрейт : 128 kBit/s
Качество : Высокий
Добавление ID3-тега : Нет
Утилита сжатия : C:\Program Files (x86)\FLAC\flac.exe
Дополнительные параметры : -V -8 -T "Date=%year%" -T "Genre=%genre%" %source%
TOC извлечённого CD
Трек | Старт | Длительность | Начальный сектор | Конечный сектор
---------------------------------------------------------------------
1 | 0:00.00 | 3:52.67 | 0 | 17466
2 | 3:52.67 | 2:44.26 | 17467 | 29792
3 | 6:37.18 | 1:38.50 | 29793 | 37192
4 | 8:15.68 | 3:57.05 | 37193 | 54972
5 | 12:12.73 | 2:33.61 | 54973 | 66508
6 | 14:46.59 | 2:41.50 | 66509 | 78633
7 | 17:28.34 | 2:28.32 | 78634 | 89765
8 | 19:56.66 | 3:11.35 | 89766 | 104125
9 | 23:08.26 | 2:19.18 | 104126 | 114568
10 | 25:27.44 | 3:53.33 | 114569 | 132076
11 | 29:21.02 | 3:06.05 | 132077 | 146031
12 | 32:27.07 | 4:10.70 | 146032 | 164851
13 | 36:38.02 | 3:17.17 | 164852 | 179643
14 | 39:55.19 | 2:35.41 | 179644 | 191309
15 | 42:30.60 | 2:32.08 | 191310 | 202717
16 | 45:02.68 | 2:13.30 | 202718 | 212722
17 | 47:16.23 | 3:11.52 | 212723 | 227099
18 | 50:28.00 | 3:13.07 | 227100 | 241581
19 | 53:41.07 | 7:03.18 | 241582 | 273324
Характеристики диапазона извлечения и сообщения об ошибках
Выбранный диапазон
Имя файла D:\Desktop\2016 - Радио Арктика\Происшествие - Радио Арктика.wav
Пиковый уровень 100.0 %
Скорость извлечения 6.4 X
Качество диапазона 100.0 %
CRC теста A7354DD0
CRC копии A7354DD0
Копирование... OK
Ошибок не произошло
AccurateRip: сводка
Трек 1 отсутствует в базе данных
Трек 2 отсутствует в базе данных
Трек 3 отсутствует в базе данных
Трек 4 отсутствует в базе данных
Трек 5 отсутствует в базе данных
Трек 6 отсутствует в базе данных
Трек 7 отсутствует в базе данных
Трек 8 отсутствует в базе данных
Трек 9 отсутствует в базе данных
Трек 10 отсутствует в базе данных
Трек 11 отсутствует в базе данных
Трек 12 отсутствует в базе данных
Трек 13 отсутствует в базе данных
Трек 14 отсутствует в базе данных
Трек 15 отсутствует в базе данных
Трек 16 отсутствует в базе данных
Трек 17 отсутствует в базе данных
Трек 18 отсутствует в базе данных
Трек 19 отсутствует в базе данных
Ни одного трека нет в базе AccurateRip
Конец отчёта
==== Контрольная сумма отчёта A309891C1EB9CA8EBD93EDFA3082513560234AE19517BAE9C62086339EBEBD4A ====

Об альбоме (сборнике)

Конверт, CD-R.
Девятый официальный альбом группы "Происшествие".

Состав

Алексей Караковский - музыка, слова;
Александр Кравненко - музыка и слова (6);
Тимур Кибиров - слова (9).
Алексей Караковский - вокал, гитара, клавишные (1, 4, 8-10, 12, 16, 19);
Тимофей Ляховский - бэк-вокал (6, 10), кларнет (5, 8, 10, 13, 14, 18), флейта (1, 7, 12, 15, 19), баян (13);
Михаил Гусман - бас, бэк-вокал (18);
Александр Баранов - ударные;
Катерина Гервагина - бэк-вокал (17), клавишные (5, 17, 18);
Анастасия Диевская - вокал (5, 14);
Александра Тэвдой-Бурмули - бэк-вокал (2, 7, 19);
Владислава Рукавишникова - бэк-вокал (1, 10, 12);
Арина Филипенкова - блок-флейта (2);
Янис Сурвило - синтезатор (6), звук, сведение, мастеринг.
Директор - Светлана Акимова.

2018 - Счастье

Год издания: 2018
Носитель: CD-R
Продолжительность: 00:56:34
Треклист:
1. Счастье
2. Ватерлоо-роуд
3. Остров
4. Пирог со свечами
5. Феодосия
6. Варежки
7. Стать водой
8. Билеты на Марс
9. Светлана
10. Девятый век
11. Блюз благоприятной среды
12. Город-блюз
13. Свидание в кафе
14. Пусти птицу
15. Это рок-н-ролл
16. Ангел
17. Ты никогда не будешь один
18. Скорость
19. Апрель

Лог создания рипа

Exact Audio Copy V1.3 from 2. September 2016
Отчёт EAC об извлечении, выполненном 11. января 2019, 21:19
Происшествие / Счастье
Дисковод: ASUS DRW-1814BLT Adapter: 1 ID: 0
Режим чтения : Достоверность
Использование точного потока : Да
Отключение кэша аудио : Да
Использование указателей C2 : Нет
Коррекция смещения при чтении : 6
Способность читать области Lead-in и Lead-out : Нет
Заполнение пропущенных сэмплов тишиной : Да
Удаление блоков с тишиной в начале и конце : Нет
При вычислениях CRC использовались нулевые сэмплы : Да
Интерфейс : Встроенный Win32-интерфейс для Win NT/2000
Выходной формат : Пользовательский кодировщик
Выбранный битрейт : 128 kBit/s
Качество : Высокий
Добавление ID3-тега : Нет
Утилита сжатия : C:\Program Files (x86)\Exact Audio Copy\Flac\flac.exe
Дополнительные параметры : -V -8 -T "Date=%year%" -T "Genre=%genre%" %source%
TOC извлечённого CD
Трек | Старт | Длительность | Начальный сектор | Конечный сектор
---------------------------------------------------------------------
1 | 0:00.00 | 2:53.60 | 0 | 13034
2 | 2:53.60 | 2:54.05 | 13035 | 26089
3 | 5:47.65 | 3:18.63 | 26090 | 41002
4 | 9:06.53 | 4:08.20 | 41003 | 59622
5 | 13:14.73 | 2:51.23 | 59623 | 72470
6 | 16:06.21 | 2:42.42 | 72471 | 84662
7 | 18:48.63 | 2:35.43 | 84663 | 96330
8 | 21:24.31 | 2:18.01 | 96331 | 106681
9 | 23:42.32 | 3:00.00 | 106682 | 120181
10 | 26:42.32 | 3:33.33 | 120182 | 136189
11 | 30:15.65 | 2:52.19 | 136190 | 149108
12 | 33:08.09 | 3:01.37 | 149109 | 162720
13 | 36:09.46 | 2:22.24 | 162721 | 173394
14 | 38:31.70 | 2:25.34 | 173395 | 184303
15 | 40:57.29 | 2:34.35 | 184304 | 195888
16 | 43:31.64 | 2:40.70 | 195889 | 207958
17 | 46:12.59 | 2:56.13 | 207959 | 221171
18 | 49:08.72 | 4:04.37 | 221172 | 239508
19 | 53:13.34 | 3:20.59 | 239509 | 254567
Характеристики диапазона извлечения и сообщения об ошибках
Выбранный диапазон
Имя файла D:\Desktop\2018 - Счастье\Происшествие - Счастье.wav
Пиковый уровень 100.0 %
Скорость извлечения 7.8 X
Качество диапазона 100.0 %
CRC теста 14B6E94C
CRC копии 14B6E94C
Копирование... OK
Ошибок не произошло
Конец отчёта
==== Контрольная сумма отчёта A79A1F9E04FF8195D19AF20765ACC50D4E37050216805469EC474E68174ECC54 ====

Об альбоме (сборнике)

Jewel box, CD-R.
Десятый официальный альбом группы "Происшествие". Песни написаны в 1996-2015 гг. Записано в студии MYM Records в 2015-2018 гг.
Звук, сведение, мастеринг - Янис Сурвилло.
Алексей Караковский - музыка, слова, перевод с английского (2, 17); Майк Уилш и Майк Дейган - музыка и слова (2);
Шамиль Абряров - музыка и слова (4); Сергей Студилов - музыка и слова (6); Роман Дёмин - музыка и слова (12);
Екатерина Мирошниченко - музыка и слова (16); Алексей и Наталья Караковские - слова (10, 11);
Ричард Роджерс и Оскар Хаммерстайн - музыка и слова (17).

Состав

Алексей Караковский - вокал, гитара, клавишные (1-4, 8-10, 12, 13, 16-19);
Тимофей Ляховский - кларнет (4, 6, 11-13, 15, 17, 18), флейта (1, 3, 10, 17);
Михаил Гусман - бас;
Александр Баранов - ударные;
Катерина Гервагина - клавишные (5, 14);
Арина Филипенкова - валторна (2, 18), флейта (5);
Владислава Рукавишникова - вокал (2, 4, 8, 10, 11, 13, 19);
Светлана Фёдорова - вокал (3, 7, 9, 14);
Наталия Беленькая - скрипка (19), бэк-вокал (19);
Доп. информация:
Сайт

Об исполнителе (группе)

Группа "Происшествие" была создана в 1994 году арбатскими музыкантами - гитаристом, вокалистом, автором песен Алексеем Караковским и бас-гитаристом Михаилом Гусевым "Гусманом".
«Происшествие» - это в прямом смысле происшествие. Всегда. Ее состав менялся немыслимое количество раз. Она выступала в разных инструментальных составах, исполняла песни в совершенно разных местах — от городских улиц до фестивалей и престижных клубов в обоих столицах и небольших провинциальных городках.
Музыканты предпочитают исполнять мелодичную ритмичную музыку - джаз, блюз, рок, панк, фолк-рок. Тексты песен отличаются, с одной стороны, острословием и юмором, с другой - трагичностью и чувственностью.
Благодаря этому название группы точно так же, как и в жизни, можно трактовать двояко: в позитивном ключе (праздник, приятный сюрприз) и в негативном (катастрофы в мире и личной жизни человека). Впрочем, о чём бы ни пело «Происшествие», их песни всегда вызывают симпатию своей искренностью и стремлением к внутренней свободе.
06.07.2016 00:37 торрент-файл перезалит - добавлен альбом "Интифада"
31.12.2016 00:51 торрент-файл перезалит - добавлен альбом "Радио Арктика"
11.01.2019 23:29 торрент-файл перезалит - добавлен альбом "Счастье"
[torrents24.ru].t69880.torrent 
Торрент: Зарегистрирован [ 2019-01-12 16:40 ] · 3EED4F78CBB2FE1AE07FFE3239EEDF9EDDF061DF

Скачать .torrent

Скачать

28 KB

Статус: проверено
Скачан: 0 раз
Размер: 3,89 GB

Профиль [ЛС]
Показать сообщения:    

Текущее время: 23-Янв 04:59

Часовой пояс: UTC + 3



Вы не можете начинать темы
Вы не можете отвечать на сообщения
Вы не можете редактировать свои сообщения
Вы не можете удалять свои сообщения
Вы не можете голосовать в опросах
Вы не можете прикреплять файлы к сообщениям
Вы можете скачивать файлы