Статистика раздачи
Размер:  62,18 GB   |    Зарегистрирован:  10 дней   |    Скачан:  0 раз

Полного источника не было: Никогда

 
   
 
 

Differеnt ®

Пол:
Не указан
Стаж:
11 месяцев 18 дней
Сообщений:
781

Wolfgang Amadeus Mozart (1756-1791)
Mozart 225: The New Complete Edition (200 CD)

Жанр: Classical || Страна-производитель диска: Австрия || Год издания диска: 2016
Издатель (лейбл): Deutsche Grammophon || Номер по каталогу: 0289 483 0000 6 || Дата записи: 1970s-2010s
Аудиокодек: FLAC || Тип рипа: tracks+.cue || Битрейт аудио: lossless || Продолжительность: 10d 1:23:42.387
Источник: скачано с корейского трекера
Наличие сканов в содержимом раздачи: да-

CD-001: Chamber - a1 - Nannerl's Notenbuch Excerpts; London Sketchbook (1761-1765) (01:16:35)

Nannerl's Notenbuch
01. Andante in C, KV.1a (00:21)
02. Allegro in C, KV.1b (00:17)
03. Allegro in F, KV.1c (00:50)
04. Minuet in F, KV.1d (01:19)
05. Minuet in G, KV.1e - Minuet in C, KV.1f (02:02)
06. Minuet in F, KV.2 (00:57)
07. Allegro in B flat, KV.3 (01:02)
08. Minuet in F, KV.4 (01:19)
09. Minuet in F, KV.5 (01:08)
10. Allegro in C, KV.9a (03:17)
The London Sketchbook, KV. 15a-ss
11. Allegretto in F, KV.15a (01:40)
12. Andantino in C, KV.15b (01:08)
13. Minuet in G, KV.15c (00:55)
14. Rondino in D, KV.15d (01:23)
15. Contredanse in G, KV.15e (00:37)
16. Minuet in C, KV.15f (01:05)
17. Fantasia (Prelude) in G, KV.15g (01:03)
18. Contredanse in F, KV.15h (01:02)
19. Minuet in A - Minore in a, KV.15i,k (02:06)
20. Contredanse in A, KV.15l (01:06)
21. Minuet in F, KV.15m (01:14)
22. Andante in C, KV.15n (02:38)
23. Andante in D, KV.15o (02:07)
24. Movement to a Piano Sonata in g, KV.15p (03:05)
25. Andante in B flat, KV.15q (03:19)
26. Andante in g, KV.15r (01:33)
27. Piano Piece in C, KV.15s (00:39)
28. Movement for a Sonata in F, KV.15t (02:20)
29. Siciliano in c, KV.15u (01:50)
30. Movement for a Sonata in F, KV.15v (02:29)
31. Allemande in B flat, KV.15w (02:21)
32. Movement for a Sonata in F, KV.15x (00:57)
33. Minuet in G, KV.15y (00:55)
34. Gigue in c, KV.15z (02:33)
35. Movement for a Sonata in B flat, KV.15aa (02:01)
36. Movement to a Piano Sonata in D, KV.15bb (01:32)
37. Minuet in E flat, KV.15cc (03:08)
38. Andante in A flat, KV.15dd (02:33)
39. Minuet in E flat, KV.15ee (00:51)
40. Minuet in A flat, KV.15ff (00:54)
41. Contredanse in B flat, KV.15gg (01:38)
42. Rondo in F, KV.15hh (01:18)
43. Andante in B flat, KV.15ii (01:51)
44. Movement for a Sonata in E flat, KV.15kk (02:29)
45. Presto in B flat, KV.15ll (00:49)
46. Andante in E flat, KV.15mm (00:39)
47. Movement for a Sonata in F (Fragment), KV.15nn (00:10)
48. German Dance in F, KV.15oo (00:43)
49. Minuet in B flat & Trio in E flat, KV.15pp,qq (02:14)
50. Minuet in C (Fragment), KV.15rr (00:26)
51. Fugue in a (Fragment), KV.15ss (00:41)-[1–10] Erik Smith harpsichord
[11–51] Erik Smith harpsichord
Florian Birsak spinet, harpsichord
Thomas Trotter organ

LOG (CD 1)

Exact Audio Copy V1.1 from 23. June 2015
EAC extraction logfile from 7. November 2016, 20:39
Various / CD-001 - Chamber - a1 - Nannerl Notenbuch Excerpts; London Sketchbook (1761-1765)
Used drive : ASUS SDRW-08D2S-U Adapter: 1 ID: 1
Read mode : Secure
Utilize accurate stream : Yes
Defeat audio cache : Yes
Make use of C2 pointers : No
Read offset correction : 6
Overread into Lead-In and Lead-Out : No
Fill up missing offset samples with silence : Yes
Delete leading and trailing silent blocks : No
Null samples used in CRC calculations : Yes
Used interface : Native Win32 interface for Win NT & 2000
Gap handling : Appended to previous track
Used output format : User Defined Encoder
Selected bitrate : 1024 kBit/s
Quality : High
Add ID3 tag : No
Command line compressor : C:\Program Files (x86)\foobar2000\FLAC\flac.exe
Additional command line options : -8 -e -V -T "ARTIST=%artist%" -T "TITLE=%title%" -T "ALBUM=%albumtitle%" -T "DATE=%year%" -T "TRACKNUMBER=%tracknr%" -T "GENRE=%genre%" -T "PERFORMER=%albuminterpret%" -T "COMPOSER=%composer%" %haslyrics%--tag-from-file=LYRICS="%lyricsfile%"%haslyrics% -T "ALBUMARTIST=%albumartist%" -T "DISCNUMBER=%cdnumber%" -T "TOTALDISCS=%totalcds%" -T "TOTALTRACKS=%numtracks%" -T "COMMENT=%comment%" %source% -o %dest%
TOC of the extracted CD
Track | Start | Length | Start sector | End sector
---------------------------------------------------------
1 | 0:00.00 | 0:20.44 | 0 | 1543
2 | 0:20.44 | 0:17.12 | 1544 | 2830
3 | 0:37.56 | 0:50.30 | 2831 | 6610
4 | 1:28.11 | 1:19.27 | 6611 | 12562
5 | 2:47.38 | 2:01.61 | 12563 | 21698
6 | 4:49.24 | 0:57.36 | 21699 | 26009
7 | 5:46.60 | 1:01.71 | 26010 | 30655
8 | 6:48.56 | 1:19.21 | 30656 | 36601
9 | 8:08.02 | 1:08.00 | 36602 | 41701
10 | 9:16.02 | 3:16.74 | 41702 | 56475
11 | 12:33.01 | 1:40.27 | 56476 | 64002
12 | 14:13.28 | 1:07.41 | 64003 | 69068
13 | 15:20.69 | 0:54.66 | 69069 | 73184
14 | 16:15.60 | 1:23.27 | 73185 | 79436
15 | 17:39.12 | 0:37.22 | 79437 | 82233
16 | 18:16.34 | 1:04.70 | 82234 | 87103
17 | 19:21.29 | 1:03.27 | 87104 | 91855
18 | 20:24.56 | 1:01.49 | 91856 | 96479
19 | 21:26.30 | 2:06.08 | 96480 | 105937
20 | 23:32.38 | 1:05.59 | 105938 | 110871
21 | 24:38.22 | 1:13.73 | 110872 | 116419
22 | 25:52.20 | 2:37.40 | 116420 | 128234
23 | 28:29.60 | 2:07.35 | 128235 | 137794
24 | 30:37.20 | 3:04.73 | 137795 | 151667
25 | 33:42.18 | 3:19.04 | 151668 | 166596
26 | 37:01.22 | 1:33.02 | 166597 | 173573
27 | 38:34.24 | 0:38.71 | 173574 | 176494
28 | 39:13.20 | 2:20.10 | 176495 | 187004
29 | 41:33.30 | 1:50.15 | 187005 | 195269
30 | 43:23.45 | 2:28.45 | 195270 | 206414
31 | 45:52.15 | 2:20.43 | 206415 | 216957
32 | 48:12.58 | 0:57.25 | 216958 | 221257
33 | 49:10.08 | 0:55.30 | 221258 | 225412
34 | 50:05.38 | 2:32.73 | 225413 | 236885
35 | 52:38.36 | 2:00.71 | 236886 | 245956
36 | 54:39.32 | 1:31.57 | 245957 | 252838
37 | 56:11.14 | 3:08.14 | 252839 | 266952
38 | 59:19.28 | 2:33.02 | 266953 | 278429
39 | 61:52.30 | 0:50.72 | 278430 | 282251
40 | 62:43.27 | 0:54.03 | 282252 | 286304
41 | 63:37.30 | 1:38.32 | 286305 | 293686
42 | 65:15.62 | 1:17.61 | 293687 | 299522
43 | 66:33.48 | 1:51.00 | 299523 | 307847
44 | 68:24.48 | 2:29.03 | 307848 | 319025
45 | 70:53.51 | 0:49.24 | 319026 | 322724
46 | 71:43.00 | 0:38.49 | 322725 | 325623
47 | 72:21.49 | 0:09.66 | 325624 | 326364
48 | 72:31.40 | 0:42.57 | 326365 | 329571
49 | 73:14.22 | 2:13.58 | 329572 | 339604
50 | 75:28.05 | 0:26.21 | 339605 | 341575
51 | 75:54.26 | 0:40.51 | 341576 | 344626
Track 1
Filename C:\Rippy\Mozart_225\CD-001\01 - Nannerl Notenbuch - Andante in C, K.1a.wav
Pre-gap length 0:00:02.00
Peak level 52.3 %
Extraction speed 0.3 X
Track quality 99.4 %
Test CRC 94F28809
Copy CRC 94F28809
Track not present in AccurateRip database
Copy OK
Track 2
Filename C:\Rippy\Mozart_225\CD-001\02 - Nannerl Notenbuch - Allegro in C, K.1b.wav
Peak level 34.6 %
Extraction speed 0.4 X
Track quality 100.0 %
Test CRC AD58F2BF
Copy CRC AD58F2BF
Track not present in AccurateRip database
Copy OK
Track 3
Filename C:\Rippy\Mozart_225\CD-001\03 - Nannerl Notenbuch - Allegro in F, K.1c.wav
Peak level 34.2 %
Extraction speed 0.8 X
Track quality 100.0 %
Test CRC 0893E75E
Copy CRC 0893E75E
Track not present in AccurateRip database
Copy OK
Track 4
Filename C:\Rippy\Mozart_225\CD-001\04 - Nannerl Notenbuch - Minuet in F, K.1d.wav
Peak level 58.3 %
Extraction speed 0.7 X
Track quality 99.8 %
Test CRC 48B17556
Copy CRC 48B17556
Track not present in AccurateRip database
Copy OK
Track 5
Filename C:\Rippy\Mozart_225\CD-001\05 - Nannerl Notenbuch - Minuet in G, K.1e - Minuet in C, K.1f.wav
Peak level 39.6 %
Extraction speed 0.9 X
Track quality 99.9 %
Test CRC 02BDDFF9
Copy CRC 02BDDFF9
Track not present in AccurateRip database
Copy OK
Track 6
Filename C:\Rippy\Mozart_225\CD-001\06 - Nannerl Notenbuch - Minuet in F, K.2.wav
Peak level 30.2 %
Extraction speed 0.9 X
Track quality 100.0 %
Test CRC 6A4EA273
Copy CRC 6A4EA273
Track not present in AccurateRip database
Copy OK
Track 7
Filename C:\Rippy\Mozart_225\CD-001\07 - Nannerl Notenbuch - Allegro in B flat, K.3.wav
Peak level 64.9 %
Extraction speed 1.0 X
Track quality 100.0 %
Test CRC 74F85DA8
Copy CRC 74F85DA8
Track not present in AccurateRip database
Copy OK
Track 8
Filename C:\Rippy\Mozart_225\CD-001\08 - Nannerl Notenbuch - Minuet in F, K.4.wav
Peak level 61.3 %
Extraction speed 1.1 X
Track quality 100.0 %
Test CRC 4C4485FB
Copy CRC 4C4485FB
Track not present in AccurateRip database
Copy OK
Track 9
Filename C:\Rippy\Mozart_225\CD-001\09 - Nannerl Notenbuch - Minuet in F, K.5.wav
Peak level 45.9 %
Extraction speed 1.1 X
Track quality 100.0 %
Test CRC 0B16F130
Copy CRC 0B16F130
Track not present in AccurateRip database
Copy OK
Track 10
Filename C:\Rippy\Mozart_225\CD-001\10 - Nannerl Notenbuch - Allegro in C, K.9a.wav
Peak level 48.7 %
Extraction speed 1.5 X
Track quality 100.0 %
Test CRC F8CCADAF
Copy CRC F8CCADAF
Track not present in AccurateRip database
Copy OK
Track 11
Filename C:\Rippy\Mozart_225\CD-001\11 - The London Sketchbook - Allegretto in F K.15a.wav
Peak level 34.0 %
Extraction speed 1.3 X
Track quality 100.0 %
Test CRC 8AC66FAB
Copy CRC 8AC66FAB
Track not present in AccurateRip database
Copy OK
Track 12
Filename C:\Rippy\Mozart_225\CD-001\12 - The London Sketchbook - Andantino in C, K.15b.wav
Peak level 59.9 %
Extraction speed 1.2 X
Track quality 100.0 %
Test CRC FA6166F4
Copy CRC FA6166F4
Track not present in AccurateRip database
Copy OK
Track 13
Filename C:\Rippy\Mozart_225\CD-001\13 - The London Sketchbook - Minuet in G Major, K.15c.wav
Peak level 47.9 %
Extraction speed 1.1 X
Track quality 100.0 %
Test CRC 2E64ACE8
Copy CRC 2E64ACE8
Track not present in AccurateRip database
Copy OK
Track 14
Filename C:\Rippy\Mozart_225\CD-001\14 - The London Sketchbook - Rondino in D Major, K.15d.wav
Peak level 63.8 %
Extraction speed 1.3 X
Track quality 100.0 %
Test CRC 52DD858E
Copy CRC 52DD858E
Track not present in AccurateRip database
Copy OK
Track 15
Filename C:\Rippy\Mozart_225\CD-001\15 - The London Sketchbook - Contredanse in G Major, K.15e.wav
Peak level 59.8 %
Extraction speed 0.9 X
Track quality 100.0 %
Test CRC 1853A01D
Copy CRC 1853A01D
Track not present in AccurateRip database
Copy OK
Track 16
Filename C:\Rippy\Mozart_225\CD-001\16 - The London Sketchbook - Minuet in C Major, K.15f.wav
Peak level 47.4 %
Extraction speed 1.2 X
Track quality 100.0 %
Test CRC 3D840A3D
Copy CRC 3D840A3D
Track not present in AccurateRip database
Copy OK
Track 17
Filename C:\Rippy\Mozart_225\CD-001\17 - The London Sketchbook - Fantasia (Prelude) in G major K.15g.wav
Peak level 34.2 %
Extraction speed 1.2 X
Track quality 100.0 %
Test CRC C63378C2
Copy CRC C63378C2
Track not present in AccurateRip database
Copy OK
Track 18
Filename C:\Rippy\Mozart_225\CD-001\18 - The London Sketchbook - Contredanse in F Major, K.15h.wav
Peak level 49.0 %
Extraction speed 1.2 X
Track quality 100.0 %
Test CRC E4F949AB
Copy CRC E4F949AB
Track not present in AccurateRip database
Copy OK
Track 19
Filename C:\Rippy\Mozart_225\CD-001\19 - The London Sketchbook - Minuet,Minore in A Major,A Minor, K15i,k.wav
Peak level 39.3 %
Extraction speed 1.6 X
Track quality 100.0 %
Test CRC C12A5BAC
Copy CRC C12A5BAC
Track not present in AccurateRip database
Copy OK
Track 20
Filename C:\Rippy\Mozart_225\CD-001\20 - The London Sketchbook - Contredanse in A Major, K15l.wav
Peak level 61.4 %
Extraction speed 1.3 X
Track quality 100.0 %
Test CRC 246D5336
Copy CRC 246D5336
Track not present in AccurateRip database
Copy OK
Track 21
Filename C:\Rippy\Mozart_225\CD-001\21 - The London Sketchbook - Minuet in F Major, K.15m.wav
Peak level 47.6 %
Extraction speed 1.4 X
Track quality 100.0 %
Test CRC F82426D9
Copy CRC F82426D9
Track not present in AccurateRip database
Copy OK
Track 22
Filename C:\Rippy\Mozart_225\CD-001\22 - The London Sketchbook - Andante in C Major, K.15n.wav
Peak level 42.2 %
Extraction speed 1.8 X
Track quality 100.0 %
Test CRC 35AF7380
Copy CRC 35AF7380
Track not present in AccurateRip database
Copy OK
Track 23
Filename C:\Rippy\Mozart_225\CD-001\23 - The London Sketchbook - Andante in D Major, K15o.wav
Peak level 67.0 %
Extraction speed 1.4 X
Track quality 99.9 %
Test CRC D41BD160
Copy CRC D41BD160
Track not present in AccurateRip database
Copy OK
Track 24
Filename C:\Rippy\Mozart_225\CD-001\24 - The London Sketchbook - Movement to a Piano Sonata in G Minor, K.15p.wav
Peak level 73.2 %
Extraction speed 1.9 X
Track quality 100.0 %
Test CRC BFFD34DB
Copy CRC BFFD34DB
Track not present in AccurateRip database
Copy OK
Track 25
Filename C:\Rippy\Mozart_225\CD-001\25 - The London Sketchbook - Andante in B Flat Major, K.15q.wav
Peak level 28.8 %
Extraction speed 2.0 X
Track quality 100.0 %
Test CRC D431E886
Copy CRC D431E886
Track not present in AccurateRip database
Copy OK
Track 26
Filename C:\Rippy\Mozart_225\CD-001\26 - The London Sketchbook - Andante in G Minor, K.15r.wav
Peak level 46.6 %
Extraction speed 1.7 X
Track quality 100.0 %
Test CRC 216194EE
Copy CRC 216194EE
Track not present in AccurateRip database
Copy OK
Track 27
Filename C:\Rippy\Mozart_225\CD-001\27 - The London Sketchbook - Piano Piece in C Major, K.15s.wav
Peak level 47.7 %
Extraction speed 1.2 X
Track quality 100.0 %
Test CRC 183B5869
Copy CRC 183B5869
Track not present in AccurateRip database
Copy OK
Track 28
Filename C:\Rippy\Mozart_225\CD-001\28 - The London Sketchbook - Movement for a Sonata in F Major, K15t.wav
Peak level 59.4 %
Extraction speed 1.9 X
Track quality 100.0 %
Test CRC EBAE07D1
Copy CRC EBAE07D1
Track not present in AccurateRip database
Copy OK
Track 29
Filename C:\Rippy\Mozart_225\CD-001\29 - The London Sketchbook - Sicilianos in C Minor, K15u.wav
Peak level 24.5 %
Extraction speed 1.5 X
Track quality 99.9 %
Test CRC 72A1EC9B
Copy CRC 72A1EC9B
Track not present in AccurateRip database
Copy OK
Track 30
Filename C:\Rippy\Mozart_225\CD-001\30 - The London Sketchbook - Movement for a Sonata in F Major, K15v.wav
Peak level 55.0 %
Extraction speed 2.1 X
Track quality 100.0 %
Test CRC CADFF327
Copy CRC CADFF327
Track not present in AccurateRip database
Copy OK
Track 31
Filename C:\Rippy\Mozart_225\CD-001\31 - The London Sketchbook - Allemande in B Flat Major, K.15w.wav
Peak level 58.1 %
Extraction speed 2.1 X
Track quality 100.0 %
Test CRC 1454772C
Copy CRC 1454772C
Track not present in AccurateRip database
Copy OK
Track 32
Filename C:\Rippy\Mozart_225\CD-001\32 - The London Sketchbook - Movement for a Sonata in F Major, K.15x.wav
Peak level 56.4 %
Extraction speed 1.6 X
Track quality 100.0 %
Test CRC 78B73E4C
Copy CRC 78B73E4C
Track not present in AccurateRip database
Copy OK
Track 33
Filename C:\Rippy\Mozart_225\CD-001\33 - The London Sketchbook - Minuet in G Major, K.15y.wav
Peak level 48.9 %
Extraction speed 1.1 X
Track quality 99.8 %
Test CRC 7821BFED
Copy CRC 7821BFED
Track not present in AccurateRip database
Copy OK
Track 34
Filename C:\Rippy\Mozart_225\CD-001\34 - The London Sketchbook - Gigue in C Minor, K.15z.wav
Peak level 52.7 %
Extraction speed 2.2 X
Track quality 100.0 %
Test CRC 44DED851
Copy CRC 44DED851
Track not present in AccurateRip database
Copy OK
Track 35
Filename C:\Rippy\Mozart_225\CD-001\35 - The London Sketchbook - Movement for a Sonata in B Flat Major, K.15aa.wav
Peak level 57.5 %
Extraction speed 2.0 X
Track quality 100.0 %
Test CRC 8B2C9A6D
Copy CRC 8B2C9A6D
Track not present in AccurateRip database
Copy OK
Track 36
Filename C:\Rippy\Mozart_225\CD-001\36 - The London Sketchbook - Movement to a Piano Sonata in D Major, K.15bb.wav
Peak level 65.8 %
Extraction speed 2.0 X
Track quality 100.0 %
Test CRC 96AD7EE0
Copy CRC 96AD7EE0
Track not present in AccurateRip database
Copy OK
Track 37
Filename C:\Rippy\Mozart_225\CD-001\37 - The London Sketchbook - Minuet in E Flat Major, K.15cc.wav
Peak level 51.0 %
Extraction speed 2.3 X
Track quality 100.0 %
Test CRC 26BAB637
Copy CRC 26BAB637
Track not present in AccurateRip database
Copy OK
Track 38
Filename C:\Rippy\Mozart_225\CD-001\38 - The London Sketchbook - Andante in A Flat Major, K.15dd.wav
Peak level 49.7 %
Extraction speed 1.9 X
Track quality 99.9 %
Test CRC F7A29495
Copy CRC F7A29495
Track not present in AccurateRip database
Copy OK
Track 39
Filename C:\Rippy\Mozart_225\CD-001\39 - The London Sketchbook - Minuet in E Flat Major, K.15ee.wav
Peak level 56.6 %
Extraction speed 1.6 X
Track quality 100.0 %
Test CRC 4E4390D8
Copy CRC 4E4390D8
Track not present in AccurateRip database
Copy OK
Track 40
Filename C:\Rippy\Mozart_225\CD-001\40 - The London Sketchbook - Minuet in A Flat Major, K.15ff.wav
Peak level 42.7 %
Extraction speed 1.7 X
Track quality 100.0 %
Test CRC A9B36A18
Copy CRC A9B36A18
Track not present in AccurateRip database
Copy OK
Track 41
Filename C:\Rippy\Mozart_225\CD-001\41 - The London Sketchbook - Contredanse in B Flat Major, K15gg.wav
Peak level 54.6 %
Extraction speed 2.1 X
Track quality 100.0 %
Test CRC CE0D5CC4
Copy CRC CE0D5CC4
Track not present in AccurateRip database
Copy OK
Track 42
Filename C:\Rippy\Mozart_225\CD-001\42 - The London Sketchbook - Rondo in F Major, K.15hh.wav
Peak level 45.3 %
Extraction speed 2.0 X
Track quality 100.0 %
Test CRC 2927F06D
Copy CRC 2927F06D
Track not present in AccurateRip database
Copy OK
Track 43
Filename C:\Rippy\Mozart_225\CD-001\43 - The London Sketchbook - Andante in B Flat Major, K15ii.wav
Peak level 49.2 %
Extraction speed 2.2 X
Track quality 100.0 %
Test CRC 1477BCA5
Copy CRC 1477BCA5
Track not present in AccurateRip database
Copy OK
Track 44
Filename C:\Rippy\Mozart_225\CD-001\44 - The London Sketchbook - Movement for a Sonata in E Flat Major, K.15kk.wav
Peak level 51.5 %
Extraction speed 2.0 X
Track quality 99.9 %
Test CRC D7EB4614
Copy CRC D7EB4614
Track not present in AccurateRip database
Copy OK
Track 45
Filename C:\Rippy\Mozart_225\CD-001\45 - The London Sketchbook - Presto in B flat Major K.15ll.wav
Peak level 28.4 %
Extraction speed 1.7 X
Track quality 100.0 %
Test CRC B099708A
Copy CRC B099708A
Track not present in AccurateRip database
Copy OK
Track 46
Filename C:\Rippy\Mozart_225\CD-001\46 - The London Sketchbook - Andante in E Flat Major, K.15mm.wav
Peak level 44.1 %
Extraction speed 1.5 X
Track quality 100.0 %
Test CRC 97BC0261
Copy CRC 97BC0261
Track not present in AccurateRip database
Copy OK
Track 47
Filename C:\Rippy\Mozart_225\CD-001\47 - The London Sketchbook - Movement for a Sonata in F Major (Fragment), K.15nn.wav
Peak level 39.3 %
Extraction speed 0.6 X
Track quality 100.0 %
Test CRC 33828C3D
Copy CRC 33828C3D
Track not present in AccurateRip database
Copy OK
Track 48
Filename C:\Rippy\Mozart_225\CD-001\48 - The London Sketchbook - German Dance in F Major, K.15oo.wav
Peak level 61.7 %
Extraction speed 1.6 X
Track quality 100.0 %
Test CRC E1087BFA
Copy CRC E1087BFA
Track not present in AccurateRip database
Copy OK
Track 49
Filename C:\Rippy\Mozart_225\CD-001\49 - The London Sketchbook - Minuet in B Flat Major & Trio in E Flat Major, K15pp,qq.wav
Peak level 28.3 %
Extraction speed 2.0 X
Track quality 99.9 %
Test CRC 1E8680AC
Copy CRC 1E8680AC
Track not present in AccurateRip database
Copy OK
Track 50
Filename C:\Rippy\Mozart_225\CD-001\50 - The London Sketchbook - Minuet in C Major (Fragment), K.15rr.wav
Peak level 42.7 %
Extraction speed 1.3 X
Track quality 100.0 %
Test CRC 8AB7DB1F
Copy CRC 8AB7DB1F
Track not present in AccurateRip database
Copy OK
Track 51
Filename C:\Rippy\Mozart_225\CD-001\51 - The London Sketchbook - Fugue in A Minor (Fragment), K.15ss.wav
Peak level 44.6 %
Extraction speed 1.5 X
Track quality 100.0 %
Test CRC 3C7920D5
Copy CRC 3C7920D5
Track not present in AccurateRip database
Copy OK
None of the tracks are present in the AccurateRip database
No errors occurred
End of status report
---- CUETools DB Plugin V2.1.6
[CTDB TOCID: TsiUkthU7xvqn8.kdqqKLhWqkPc-] found
Submit result: TsiUkthU7xvqn8.kdqqKLhWqkPc- has been confirmed
Track | CTDB Status
1 | (2/2) Accurately ripped
2 | (2/2) Accurately ripped
3 | (2/2) Accurately ripped
4 | (2/2) Accurately ripped
5 | (2/2) Accurately ripped
6 | (2/2) Accurately ripped
7 | (2/2) Accurately ripped
8 | (2/2) Accurately ripped
9 | (2/2) Accurately ripped
10 | (2/2) Accurately ripped
11 | (2/2) Accurately ripped
12 | (2/2) Accurately ripped
13 | (2/2) Accurately ripped
14 | (2/2) Accurately ripped
15 | (2/2) Accurately ripped
16 | (2/2) Accurately ripped
17 | (2/2) Accurately ripped
18 | (2/2) Accurately ripped
19 | (2/2) Accurately ripped
20 | (2/2) Accurately ripped
21 | (2/2) Accurately ripped
22 | (2/2) Accurately ripped
23 | (2/2) Accurately ripped
24 | (2/2) Accurately ripped
25 | (2/2) Accurately ripped
26 | (2/2) Accurately ripped
27 | (2/2) Accurately ripped
28 | (2/2) Accurately ripped
29 | (2/2) Accurately ripped
30 | (2/2) Accurately ripped
31 | (2/2) Accurately ripped
32 | (2/2) Accurately ripped
33 | (2/2) Accurately ripped
34 | (2/2) Accurately ripped
35 | (2/2) Accurately ripped
36 | (2/2) Accurately ripped
37 | (2/2) Accurately ripped
38 | (2/2) Accurately ripped
39 | (2/2) Accurately ripped
40 | (2/2) Accurately ripped
41 | (2/2) Accurately ripped
42 | (2/2) Accurately ripped
43 | (2/2) Accurately ripped
44 | (2/2) Accurately ripped
45 | (2/2) Accurately ripped
46 | (2/2) Accurately ripped
47 | (2/2) Accurately ripped
48 | (2/2) Accurately ripped
49 | (2/2) Accurately ripped
50 | (2/2) Accurately ripped
51 | (2/2) Accurately ripped
==== Log checksum 4C12579AAC94DE487B1CAAD86C7EECF8E346D54DE36F2847CF895B7EADF71AED ====

CUE (CD 001)

REM DATE 2016
REM GENRE Chamber Music
REM DISCID E511F333
REM COMMENT ExactAudioCopy v1.1
CATALOG 0028947897880
PERFORMER "Various Artists"
TITLE "CD-001-Chamber-a1-Nannerl Notenbuch Excerpts; London Sketchbook"
FILE "01-Nannerl Notenbuch-Andante in C, KV.1a.flac" WAVE
TRACK 01 AUDIO
PERFORMER "Erik Smith harpsichord"
TITLE "Nannerl Notenbuch-Andante in C, KV.1a"
ISRC NLA507602307
INDEX 01 00:00:00
FILE "02-Nannerl Notenbuch-Allegro in C, KV.1b.flac" WAVE
TRACK 02 AUDIO
PERFORMER "Erik Smith harpsichord"
TITLE "Nannerl Notenbuch-Allegro in C, KV.1b"
ISRC NLA507602308
INDEX 01 00:00:00
FILE "03-Nannerl Notenbuch-Allegro in F, KV.1c.flac" WAVE
TRACK 03 AUDIO
PERFORMER "Erik Smith harpsichord"
TITLE "Nannerl Notenbuch-Allegro in F, KV.1c"
ISRC NLA507602309
INDEX 01 00:00:00
FILE "04-Nannerl Notenbuch-Minuet in F, KV.1d.flac" WAVE
TRACK 04 AUDIO
PERFORMER "Erik Smith harpsichord"
TITLE "Nannerl Notenbuch-Minuet in F, KV.1d"
ISRC NLA507602310
INDEX 01 00:00:00
FILE "05-Nannerl Notenbuch-Minuet in G, KV.1e-Minuet in C, KV.1f.flac" WAVE
TRACK 05 AUDIO
PERFORMER "Erik Smith harpsichord"
TITLE "Nannerl Notenbuch-Minuet in G, KV.1e-Minuet in C, KV.1f"
ISRC NLA507602311
INDEX 01 00:00:00
FILE "06-Nannerl Notenbuch-Minuet in F, KV.2.flac" WAVE
TRACK 06 AUDIO
PERFORMER "Erik Smith harpsichord"
TITLE "Nannerl Notenbuch-Minuet in F, KV.2"
ISRC NLA507602312
INDEX 01 00:00:00
FILE "07-Nannerl Notenbuch-Allegro in B flat, KV.3.flac" WAVE
TRACK 07 AUDIO
PERFORMER "Erik Smith harpsichord"
TITLE "Nannerl Notenbuch-Allegro in B flat, KV.3"
ISRC NLA507602313
INDEX 01 00:00:00
FILE "08-Nannerl Notenbuch-Minuet in F, KV.4.flac" WAVE
TRACK 08 AUDIO
PERFORMER "Erik Smith harpsichord"
TITLE "Nannerl Notenbuch-Minuet in F, KV.4"
ISRC NLA507602314
INDEX 01 00:00:00
FILE "09-Nannerl Notenbuch-Minuet in F, KV.5.flac" WAVE
TRACK 09 AUDIO
PERFORMER "Erik Smith harpsichord"
TITLE "Nannerl Notenbuch-Minuet in F, KV.5"
ISRC NLA507602315
INDEX 01 00:00:00
FILE "10-Nannerl Notenbuch-Allegro in C, KV.9a.flac" WAVE
TRACK 10 AUDIO
PERFORMER "Erik Smith harpsichord"
TITLE "Nannerl Notenbuch-Allegro in C, KV.9a"
ISRC NLA507602316
INDEX 01 00:00:00
FILE "11-The London Sketchbook-Allegretto in F, KV.15a.flac" WAVE
TRACK 11 AUDIO
PERFORMER "Erik Smith harpsichord"
TITLE "The London Sketchbook-Allegretto in F, KV.15a"
ISRC GBF079311292
INDEX 01 00:00:00
FILE "12-The London Sketchbook-Andantino in C, KV.15b.flac" WAVE
TRACK 12 AUDIO
PERFORMER "Erik Smith harpsichord"
TITLE "The London Sketchbook-Andantino in C, KV.15b"
ISRC NLA507613701
INDEX 01 00:00:00
FILE "13-The London Sketchbook-Minuet in G Major, KV.15c.flac" WAVE
TRACK 13 AUDIO
PERFORMER "Erik Smith harpsichord"
TITLE "The London Sketchbook-Minuet in G Major, KV.15c"
ISRC GBF071601090
INDEX 01 00:00:00
FILE "14-The London Sketchbook-Rondino in D Major, KV.15d.flac" WAVE
TRACK 14 AUDIO
PERFORMER "Erik Smith harpsichord"
TITLE "The London Sketchbook-Rondino in D Major, KV.15d"
ISRC GBF071601100
INDEX 01 00:00:00
FILE "15-The London Sketchbook-Contredanse in G Major, KV.15e.flac" WAVE
TRACK 15 AUDIO
PERFORMER "Erik Smith harpsichord"
TITLE "The London Sketchbook-Contredanse in G Major, KV.15e"
ISRC GBF071601110
INDEX 01 00:00:00
FILE "16-The London Sketchbook-Minuet in C Major, KV.15f.flac" WAVE
TRACK 16 AUDIO
PERFORMER "Erik Smith harpsichord"
TITLE "The London Sketchbook-Minuet in C Major, KV.15f"
ISRC NLA507613703
INDEX 01 00:00:00
FILE "17-The London Sketchbook-Fantasia (Prelude) in G major, KV.15g.flac" WAVE
TRACK 17 AUDIO
PERFORMER "Erik Smith harpsichord"
TITLE "The London Sketchbook-Fantasia (Prelude) in G major, KV.15g"
ISRC NLA507613703
INDEX 01 00:00:00
FILE "18-The London Sketchbook-Contredanse in F Major, KV.15h.flac" WAVE
TRACK 18 AUDIO
PERFORMER "Erik Smith harpsichord"
TITLE "The London Sketchbook-Contredanse in F Major, KV.15h"
ISRC GBF071601120
INDEX 01 00:00:00
FILE "19-The London Sketchbook-Minuet,Minore in A Major,A Minor, KV.15i,k.flac" WAVE
TRACK 19 AUDIO
PERFORMER "Erik Smith harpsichord"
TITLE "The London Sketchbook-Minuet,Minore in A Major,A Minor, KV.15i,k"
ISRC NLA507613692
INDEX 01 00:00:00
FILE "20-The London Sketchbook-Contredanse in A Major, KV.15l.flac" WAVE
TRACK 20 AUDIO
PERFORMER "Erik Smith harpsichord"
TITLE "The London Sketchbook-Contredanse in A Major, KV.15l"
ISRC NLA507613693
INDEX 01 00:00:00
FILE "21-The London Sketchbook-Minuet in F Major, KV.15m.flac" WAVE
TRACK 21 AUDIO
PERFORMER "Erik Smith harpsichord"
TITLE "The London Sketchbook-Minuet in F Major, KV.15m"
ISRC GBF071601130
INDEX 01 00:00:00
FILE "22-The London Sketchbook-Andante in C Major, KV.15n.flac" WAVE
TRACK 22 AUDIO
PERFORMER "Erik Smith harpsichord"
TITLE "The London Sketchbook-Andante in C Major, KV.15n"
ISRC GBF071601140
INDEX 01 00:00:00
FILE "23-The London Sketchbook-Andante in D Major, KV.15o.flac" WAVE
TRACK 23 AUDIO
PERFORMER "Erik Smith harpsichord"
TITLE "The London Sketchbook-Andante in D Major, KV.15o"
ISRC GBF079311294
INDEX 01 00:00:00
FILE "24-The London Sketchbook-Movement to a Piano Sonata in G Minor, KV.15p.flac" WAVE
TRACK 24 AUDIO
PERFORMER "Erik Smith harpsichord"
TITLE "The London Sketchbook-Movement to a Piano Sonata in G Minor, KV.15p"
ISRC ATRF70543307
INDEX 01 00:00:00
FILE "25-The London Sketchbook-Andante in B Flat Major, KV.15q.flac" WAVE
TRACK 25 AUDIO
PERFORMER "Erik Smith harpsichord"
TITLE "The London Sketchbook-Andante in B Flat Major, KV.15q"
ISRC ATRF70543308
INDEX 01 00:00:00
FILE "26-The London Sketchbook-Andante in G Minor, KV.15r.flac" WAVE
TRACK 26 AUDIO
PERFORMER "Erik Smith harpsichord"
TITLE "The London Sketchbook-Andante in G Minor, KV.15r"
ISRC ATRF70543309
INDEX 01 00:00:00
FILE "27-The London Sketchbook-Piano Piece in C Major, KV.15s.flac" WAVE
TRACK 27 AUDIO
PERFORMER "Erik Smith harpsichord"
TITLE "The London Sketchbook-Piano Piece in C Major, KV.15s"
ISRC GBF071601170
INDEX 01 00:00:00
FILE "28-The London Sketchbook-Movement for a Sonata in F Major, KV.15t.flac" WAVE
TRACK 28 AUDIO
PERFORMER "Erik Smith harpsichord"
TITLE "The London Sketchbook-Movement for a Sonata in F Major, KV.15t"
ISRC NLA507613681
INDEX 01 00:00:00
FILE "29-The London Sketchbook-Sicilianos in C Minor, KV.15u.flac" WAVE
TRACK 29 AUDIO
PERFORMER "Erik Smith harpsichord"
TITLE "The London Sketchbook-Sicilianos in C Minor, KV.15u"
ISRC NLA507613682
INDEX 01 00:00:00
FILE "30-The London Sketchbook-Movement for a Sonata in F Major, KV.15v.flac" WAVE
TRACK 30 AUDIO
PERFORMER "Erik Smith harpsichord"
TITLE "The London Sketchbook-Movement for a Sonata in F Major, KV.15v"
ISRC NLA507613683
INDEX 01 00:00:00
FILE "31-The London Sketchbook-Allemande in B Flat Major, KV.15w.flac" WAVE
TRACK 31 AUDIO
PERFORMER "Erik Smith harpsichord"
TITLE "The London Sketchbook-Allemande in B Flat Major, KV.15w"
ISRC GBF071601180
INDEX 01 00:00:00
FILE "32-The London Sketchbook-Movement for a Sonata in F Major, KV.15x.flac" WAVE
TRACK 32 AUDIO
PERFORMER "Erik Smith harpsichord"
TITLE "The London Sketchbook-Movement for a Sonata in F Major, KV.15x"
ISRC GBF071601190
INDEX 01 00:00:00
FILE "33-The London Sketchbook-Minuet in G Major, KV.15y.flac" WAVE
TRACK 33 AUDIO
PERFORMER "Erik Smith harpsichord"
TITLE "The London Sketchbook-Minuet in G Major, KV.15y"
ISRC GBF071601200
INDEX 01 00:00:00
FILE "34-The London Sketchbook-Gigue in C Minor, KV.15z.flac" WAVE
TRACK 34 AUDIO
PERFORMER "Erik Smith harpsichord"
TITLE "The London Sketchbook-Gigue in C Minor, KV.15z"
ISRC GBF077613650
INDEX 01 00:00:00
FILE "35-The London Sketchbook-Movement for a Sonata in B Flat Major, KV.15aa.flac" WAVE
TRACK 35 AUDIO
PERFORMER "Erik Smith harpsichord"
TITLE "The London Sketchbook-Movement for a Sonata in B Flat Major, KV.15aa"
ISRC GBF071601210
INDEX 01 00:00:00
FILE "36-The London Sketchbook-Movement to a Piano Sonata in D Major, KV.15bb.flac" WAVE
TRACK 36 AUDIO
PERFORMER "Erik Smith harpsichord"
TITLE "The London Sketchbook-Movement to a Piano Sonata in D Major, KV.15bb"
ISRC GBF071601210
INDEX 01 00:00:00
FILE "37-The London Sketchbook-Minuet in E Flat Major, KV.15cc.flac" WAVE
TRACK 37 AUDIO
PERFORMER "Erik Smith harpsichord"
TITLE "The London Sketchbook-Minuet in E Flat Major, KV.15cc"
ISRC GBF071601230
INDEX 01 00:00:00
FILE "38-The London Sketchbook-Andante in A Flat Major, KV.15dd.flac" WAVE
TRACK 38 AUDIO
PERFORMER "Erik Smith harpsichord"
TITLE "The London Sketchbook-Andante in A Flat Major, KV.15dd"
ISRC GBF071601240
INDEX 01 00:00:00
FILE "39-The London Sketchbook-Minuet in E Flat Major, KV.15ee.flac" WAVE
TRACK 39 AUDIO
PERFORMER "Erik Smith harpsichord"
TITLE "The London Sketchbook-Minuet in E Flat Major, KV.15ee"
ISRC GBF071601250
INDEX 01 00:00:00
FILE "40-The London Sketchbook-Minuet in A Flat Major, KV.15ff.flac" WAVE
TRACK 40 AUDIO
PERFORMER "Erik Smith harpsichord"
TITLE "The London Sketchbook-Minuet in A Flat Major, KV.15ff"
ISRC GBF071601260
INDEX 01 00:00:00
FILE "41-The London Sketchbook-Contredanse in B Flat Major, KV.15gg.flac" WAVE
TRACK 41 AUDIO
PERFORMER "Erik Smith harpsichord"
TITLE "The London Sketchbook-Contredanse in B Flat Major, KV.15gg"
ISRC NLA507613674
INDEX 01 00:00:00
FILE "42-The London Sketchbook-Rondo in F Major, KV.15hh.flac" WAVE
TRACK 42 AUDIO
PERFORMER "Erik Smith harpsichord"
TITLE "The London Sketchbook-Rondo in F Major, KV.15hh"
ISRC GBF071601270
INDEX 01 00:00:00
FILE "43-The London Sketchbook-Andante in B Flat Major, KV.15ii.flac" WAVE
TRACK 43 AUDIO
PERFORMER "Erik Smith harpsichord"
TITLE "The London Sketchbook-Andante in B Flat Major, KV.15ii"
ISRC GBF079311291
INDEX 01 00:00:00
FILE "44-The London Sketchbook-Movement for a Sonata in E Flat Major, KV.15kk.flac" WAVE
TRACK 44 AUDIO
PERFORMER "Erik Smith harpsichord"
TITLE "The London Sketchbook-Movement for a Sonata in E Flat Major, KV.15kk"
ISRC GBF071601280
INDEX 01 00:00:00
FILE "45-The London Sketchbook-Presto in B flat Major, KV.15ll.flac" WAVE
TRACK 45 AUDIO
PERFORMER "Erik Smith harpsichord"
TITLE "The London Sketchbook-Presto in B flat Major, KV.15ll"
ISRC NLA507613672
INDEX 01 00:00:00
FILE "46-The London Sketchbook-Andante in E Flat Major, KV.15mm.flac" WAVE
TRACK 46 AUDIO
PERFORMER "Erik Smith harpsichord"
TITLE "The London Sketchbook-Andante in E Flat Major, KV.15mm"
ISRC NLA507613672
INDEX 01 00:00:00
FILE "47-The London Sketchbook-Movement for a Sonata in F Major (Fragment), KV.15nn.flac" WAVE
TRACK 47 AUDIO
PERFORMER "Erik Smith harpsichord"
TITLE "The London Sketchbook-Movement for a Sonata in F Major (Fragment), KV.15nn"
ISRC GBF071601300
INDEX 01 00:00:00
FILE "48-The London Sketchbook-German Dance in F Major, KV.15oo.flac" WAVE
TRACK 48 AUDIO
PERFORMER "Erik Smith harpsichord"
TITLE "The London Sketchbook-German Dance in F Major, KV.15oo"
ISRC GBF071601310
INDEX 01 00:00:00
FILE "49-The London Sketchbook-Minuet in B Flat Major & Trio in E Flat Major, KV.15pp,qq.flac" WAVE
TRACK 49 AUDIO
PERFORMER "Erik Smith harpsichord"
TITLE "The London Sketchbook-Minuet in B Flat Major & Trio in E Flat Major, KV.15pp,qq"
ISRC NLA507613673
INDEX 01 00:00:00
FILE "50-The London Sketchbook-Minuet in C Major (Fragment), KV.15rr.flac" WAVE
TRACK 50 AUDIO
PERFORMER "Erik Smith harpsichord"
TITLE "The London Sketchbook-Minuet in C Major (Fragment), KV.15rr"
ISRC GBF071601320
INDEX 01 00:00:00
FILE "51-The London Sketchbook-Fugue in A Minor (Fragment), KV.15ss.flac" WAVE
TRACK 51 AUDIO
PERFORMER "Erik Smith harpsichord"
TITLE "The London Sketchbook-Fugue in A Minor (Fragment), KV.15ss"
ISRC GBF071601330
INDEX 01 00:00:00

CD-002: Chamber - a1 - Variations K24, K25, K179, K180; 8 Minuets K315a; Piano Sonata K279 (1766-1774) (01:12:33)

01. 8 Variations on 'Laat ons juichen, Batavieren!', in G, KV.24 (05:56)
02. 7 Variations on 'Willem van Nassau', in D, KV.25 (06:41)
03. Adagio in F, KV.Anh.206a (04:36)
2 Fugues, KV.154a
04. No. 1 in G (00:27)
05. No. 2 in D (00:24)
8 Menuette, KV.315a
06. Menuetto 1 in C (01:33)
07. Menuetto 2 in G (01:39)
08. Menuetto 3 in D (01:40)
09. Menuetto 4 in C (01:34)
10. Menuetto 5 in F (01:38)
11. Menuetto 6 in D (01:38)
12. Menuetto 7 in A (01:36)
13. Menuetto 8 in G (02:14)
14. 6 Variations on 'Mio caro Adone' by A.Salieri, in G, KV.180 (08:27)
15. 12 Variations on a minuet by J.C.Fischer, in C, KV.179 (18:42)
Piano Sonata No. 1 in C, KV.279
16. I. Allegro (04:48)
17. II. Andante (05:41)
18. III. Allegro (03:20)-[1-2] Ingrid Haebler piano
[3-13] Francesco Piemontesi piano
[14-15] Ingrid Haebler piano
[16–18] Mitsuko Uchida piano

LOG (CD 2)

Exact Audio Copy V1.1 from 23. June 2015
EAC extraction logfile from 7. November 2016, 21:03
Various / CD-002 - Chamber - a1 - Variations K24, K25, K179, K180; 8 Minuets K315a; Piano Sonata K279 (1766-1774)
Used drive : MATSHITACD-ROM CR-587 Adapter: 1 ID: 0
Read mode : Secure
Utilize accurate stream : Yes
Defeat audio cache : Yes
Make use of C2 pointers : No
Read offset correction : 103
Overread into Lead-In and Lead-Out : No
Fill up missing offset samples with silence : Yes
Delete leading and trailing silent blocks : No
Null samples used in CRC calculations : Yes
Used interface : Native Win32 interface for Win NT & 2000
Gap handling : Appended to previous track
Used output format : User Defined Encoder
Selected bitrate : 1024 kBit/s
Quality : High
Add ID3 tag : No
Command line compressor : C:\Program Files (x86)\foobar2000\FLAC\flac.exe
Additional command line options : -8 -e -V -T "ARTIST=%artist%" -T "TITLE=%title%" -T "ALBUM=%albumtitle%" -T "DATE=%year%" -T "TRACKNUMBER=%tracknr%" -T "GENRE=%genre%" -T "PERFORMER=%albuminterpret%" -T "COMPOSER=%composer%" %haslyrics%--tag-from-file=LYRICS="%lyricsfile%"%haslyrics% -T "ALBUMARTIST=%albumartist%" -T "DISCNUMBER=%cdnumber%" -T "TOTALDISCS=%totalcds%" -T "TOTALTRACKS=%numtracks%" -T "COMMENT=%comment%" %source% -o %dest%
TOC of the extracted CD
Track | Start | Length | Start sector | End sector
---------------------------------------------------------
1 | 0:00.00 | 5:56.34 | 0 | 26733
2 | 5:56.34 | 6:40.62 | 26734 | 56795
3 | 12:37.21 | 4:35.47 | 56796 | 77467
4 | 17:12.68 | 0:26.40 | 77468 | 79457
5 | 17:39.33 | 0:24.30 | 79458 | 81287
6 | 18:03.63 | 1:32.62 | 81288 | 88249
7 | 19:36.50 | 1:38.55 | 88250 | 95654
8 | 21:15.30 | 1:39.61 | 95655 | 103140
9 | 22:55.16 | 1:33.51 | 103141 | 110166
10 | 24:28.67 | 1:37.68 | 110167 | 117509
11 | 26:06.60 | 1:38.18 | 117510 | 124877
12 | 27:45.03 | 1:36.01 | 124878 | 132078
13 | 29:21.04 | 2:13.60 | 132079 | 142113
14 | 31:34.64 | 8:27.06 | 142114 | 180144
15 | 40:01.70 | 18:42.02 | 180145 | 264296
16 | 58:43.72 | 4:48.24 | 264297 | 285920
17 | 63:32.21 | 5:41.29 | 285921 | 311524
18 | 69:13.50 | 3:19.42 | 311525 | 326491
Track 1
Filename C:\Rippy\Mozart_225\CD-002\01 - 8 Variations in G, K.24 on "Laat ons juichen, Batavieren!".wav
Pre-gap length 0:00:02.00
Peak level 80.4 %
Extraction speed 1.6 X
Track quality 100.0 %
Test CRC 4F72B954
Copy CRC 4F72B954
Track not present in AccurateRip database
Copy OK
Track 2
Filename C:\Rippy\Mozart_225\CD-002\02 - 7 Variations in D, K.25 on "Willem van Nassau".wav
Peak level 70.1 %
Extraction speed 1.8 X
Track quality 100.0 %
Test CRC 111E3AFF
Copy CRC 111E3AFF
Track not present in AccurateRip database
Copy OK
Track 3
Filename C:\Rippy\Mozart_225\CD-002\03 - Adagio in F Major K.Anh.206a.wav
Peak level 95.2 %
Extraction speed 1.9 X
Track quality 100.0 %
Test CRC DABEC3BB
Copy CRC DABEC3BB
Track not present in AccurateRip database
Copy OK
Track 4
Filename C:\Rippy\Mozart_225\CD-002\04 - 2 Fugues, K.154a - No.1 in G.wav
Peak level 61.7 %
Extraction speed 0.6 X
Track quality 99.5 %
Test CRC 0F939023
Copy CRC 0F939023
Track not present in AccurateRip database
Copy OK
Track 5
Filename C:\Rippy\Mozart_225\CD-002\05 - 2 Fugues, K.154a - No.2 in D.wav
Peak level 98.2 %
Extraction speed 0.9 X
Track quality 100.0 %
Test CRC 3C81EA2E
Copy CRC 3C81EA2E
Track not present in AccurateRip database
Copy OK
Track 6
Filename C:\Rippy\Mozart_225\CD-002\06 - 8 Menuette, K.315a - Menuetto 1 in C.wav
Peak level 72.3 %
Extraction speed 1.7 X
Track quality 100.0 %
Test CRC F315B22A
Copy CRC F315B22A
Track not present in AccurateRip database
Copy OK
Track 7
Filename C:\Rippy\Mozart_225\CD-002\07 - 8 Menuette, K.315a - Menuetto 2 in G.wav
Peak level 89.3 %
Extraction speed 1.7 X
Track quality 100.0 %
Test CRC D45A1CB0
Copy CRC D45A1CB0
Track not present in AccurateRip database
Copy OK
Track 8
Filename C:\Rippy\Mozart_225\CD-002\08 - 8 Menuette, K.315a - Menuetto 3 in D.wav
Peak level 83.8 %
Extraction speed 1.8 X
Track quality 100.0 %
Test CRC C26FFA6E
Copy CRC C26FFA6E
Track not present in AccurateRip database
Copy OK
Track 9
Filename C:\Rippy\Mozart_225\CD-002\09 - 8 Menuette, K.315a - Menuetto 4 in C.wav
Peak level 89.8 %
Extraction speed 1.8 X
Track quality 100.0 %
Test CRC C3BAC53E
Copy CRC C3BAC53E
Track not present in AccurateRip database
Copy OK
Track 10
Filename C:\Rippy\Mozart_225\CD-002\10 - 8 Menuette, K.315a - Menuetto 5 in F.wav
Peak level 46.4 %
Extraction speed 1.4 X
Track quality 99.8 %
Test CRC 402CE5AE
Copy CRC 402CE5AE
Track not present in AccurateRip database
Copy OK
Track 11
Filename C:\Rippy\Mozart_225\CD-002\11 - 8 Menuette, K.315a - Menuetto 6 in D.wav
Peak level 68.2 %
Extraction speed 1.5 X
Track quality 99.8 %
Test CRC F8392C73
Copy CRC F8392C73
Track not present in AccurateRip database
Copy OK
Track 12
Filename C:\Rippy\Mozart_225\CD-002\12 - 8 Menuette, K.315a - Menuetto 7 in A.wav
Peak level 43.9 %
Extraction speed 1.9 X
Track quality 100.0 %
Test CRC 080CBDA4
Copy CRC 080CBDA4
Track not present in AccurateRip database
Copy OK
Track 13
Filename C:\Rippy\Mozart_225\CD-002\13 - 8 Menuette, K.315a - Menuetto 8 in G.wav
Peak level 80.4 %
Extraction speed 1.7 X
Track quality 99.9 %
Test CRC 74D5E6AA
Copy CRC 74D5E6AA
Track not present in AccurateRip database
Copy OK
Track 14
Filename C:\Rippy\Mozart_225\CD-002\14 - 6 Variations in G, K.180 on "Mio caro Adone" by A. Salieri.wav
Peak level 98.2 %
Extraction speed 2.6 X
Track quality 100.0 %
Test CRC 121E484C
Copy CRC 121E484C
Track not present in AccurateRip database
Copy OK
Track 15
Filename C:\Rippy\Mozart_225\CD-002\15 - 12 Variations in C, K.179 on a minuet by J.C. Fischer.wav
Peak level 88.1 %
Extraction speed 3.0 X
Track quality 100.0 %
Test CRC F088CB90
Copy CRC F088CB90
Track not present in AccurateRip database
Copy OK
Track 16
Filename C:\Rippy\Mozart_225\CD-002\16 - Piano Sonata No.1 in C, K.279 - 1. Allegro.wav
Peak level 95.2 %
Extraction speed 3.0 X
Track quality 100.0 %
Test CRC E50C1E9D
Copy CRC E50C1E9D
Track not present in AccurateRip database
Copy OK
Track 17
Filename C:\Rippy\Mozart_225\CD-002\17 - Piano Sonata No.1 in C, K.279 - 2. Andante.wav
Peak level 81.8 %
Extraction speed 3.2 X
Track quality 100.0 %
Test CRC A96A15ED
Copy CRC A96A15ED
Track not present in AccurateRip database
Copy OK
Track 18
Filename C:\Rippy\Mozart_225\CD-002\18 - Piano Sonata No.1 in C, K.279 - 3. Allegro.wav
Peak level 98.2 %
Extraction speed 2.6 X
Track quality 99.9 %
Test CRC 57729872
Copy CRC 57729872
Track not present in AccurateRip database
Copy OK
None of the tracks are present in the AccurateRip database
No errors occurred
End of status report
---- CUETools DB Plugin V2.1.6
[CTDB TOCID: JypcBgciHTCFFGm._AjgQ88gdlI-] found
Submit result: JypcBgciHTCFFGm._AjgQ88gdlI- has been confirmed
Track | CTDB Status
1 | (2/2) Accurately ripped
2 | (2/2) Accurately ripped
3 | (2/2) Accurately ripped
4 | (2/2) Accurately ripped
5 | (2/2) Accurately ripped
6 | (2/2) Accurately ripped
7 | (2/2) Accurately ripped
8 | (2/2) Accurately ripped
9 | (2/2) Accurately ripped
10 | (2/2) Accurately ripped
11 | (2/2) Accurately ripped
12 | (2/2) Accurately ripped
13 | (2/2) Accurately ripped
14 | (2/2) Accurately ripped
15 | (2/2) Accurately ripped
16 | (2/2) Accurately ripped
17 | (2/2) Accurately ripped
18 | (2/2) Accurately ripped
==== Log checksum 57E433586FC5520EC834019FE69BFFF2A11EAA2BFD14CDCDCAB4DC5C49B0ED77 ====

CUE (CD 2)

REM DATE 2016
REM GENRE Chamber Music
REM DISCID 0E110112
REM COMMENT ExactAudioCopy v1.1
CATALOG 0028947897897
PERFORMER "Various Artists"
TITLE "CD-002-Chamber-a1-Variations KV.24, K25, KV.179, KV.180; 8 Minuets KV.315a; Piano Sonata KV.279"
FILE "01-8 Variations in G, KV.24 on 'Laat ons juichen, Batavieren!'.flac" WAVE
TRACK 01 AUDIO
TITLE "8 Variations in G, KV.24 on 'Laat ons juichen, Batavieren!'"
PERFORMER "Ingrid Haebler"
ISRC NLA507506905
INDEX 01 00:00:00
FILE "02-7 Variations in D, KV.25 on 'Willem van Nassau'.flac" WAVE
TRACK 02 AUDIO
TITLE "7 Variations in D, KV.25 on 'Willem van Nassau'"
PERFORMER "Ingrid Haebler"
ISRC NLA507506906
INDEX 01 00:00:00
FILE "03-Adagio in F Major, KV.Anh.206a.flac" WAVE
TRACK 03 AUDIO
TITLE "Adagio in F Major, KV.Anh.206a"
PERFORMER "Francesco Piemontesi"
ISRC GBF071600180
INDEX 01 00:00:00
FILE "04-2 Fugues, KV.154a-No.1 in G.flac" WAVE
TRACK 04 AUDIO
TITLE "2 Fugues, KV.154a-No.1 in G"
PERFORMER "Francesco Piemontesi"
ISRC GBF071600171
INDEX 01 00:00:00
FILE "05-2 Fugues, KV.154a-No.2 in D.flac" WAVE
TRACK 05 AUDIO
TITLE "2 Fugues, KV.154a-No.2 in D"
PERFORMER "Francesco Piemontesi"
ISRC GBF071600172
INDEX 01 00:00:00
FILE "06-8 Menuette, KV.315a-Menuetto 1 in C.flac" WAVE
TRACK 06 AUDIO
TITLE "8 Menuette, KV.315a-Menuetto 1 in C"
PERFORMER "Francesco Piemontesi"
ISRC GBF071600191
INDEX 01 00:00:00
FILE "07-8 Menuette, KV.315a-Menuetto 2 in G.flac" WAVE
TRACK 07 AUDIO
TITLE "8 Menuette, KV.315a-Menuetto 2 in G"
PERFORMER "Francesco Piemontesi"
ISRC GBF071600192
INDEX 01 00:00:00
FILE "08-8 Menuette, KV.315a-Menuetto 3 in D.flac" WAVE
TRACK 08 AUDIO
TITLE "8 Menuette, KV.315a-Menuetto 3 in D"
PERFORMER "Francesco Piemontesi"
INDEX 01 00:00:00
FILE "09-8 Menuette, KV.315a-Menuetto 4 in C.flac" WAVE
TRACK 09 AUDIO
TITLE "8 Menuette, KV.315a-Menuetto 4 in C"
PERFORMER "Francesco Piemontesi"
ISRC GBF071600194
INDEX 01 00:00:00
FILE "10-8 Menuette, KV.315a-Menuetto 5 in F.flac" WAVE
TRACK 10 AUDIO
TITLE "8 Menuette, KV.315a-Menuetto 5 in F"
PERFORMER "Francesco Piemontesi"
ISRC GBF071600195
INDEX 01 00:00:00
FILE "11-8 Menuette, KV.315a-Menuetto 6 in D.flac" WAVE
TRACK 11 AUDIO
TITLE "8 Menuette, KV.315a-Menuetto 6 in D"
PERFORMER "Francesco Piemontesi"
ISRC GBF071600196
INDEX 01 00:00:00
FILE "12-8 Menuette, KV.315a-Menuetto 7 in A.flac" WAVE
TRACK 12 AUDIO
TITLE "8 Menuette, KV.315a-Menuetto 7 in A"
PERFORMER "Francesco Piemontesi"
ISRC GBF071600197
INDEX 01 00:00:00
FILE "13-8 Menuette, KV.315a-Menuetto 8 in G.flac" WAVE
TRACK 13 AUDIO
TITLE "8 Menuette, KV.315a-Menuetto 8 in G"
PERFORMER "Francesco Piemontesi"
INDEX 01 00:00:00
FILE "14-6 Variations in G, KV.180 on 'Mio caro Adone' by A. Salieri.flac" WAVE
TRACK 14 AUDIO
TITLE "6 Variations in G, KV.180 on 'Mio caro Adone' by A.Salieri"
PERFORMER "Ingrid Haebler"
ISRC NLA507506902
INDEX 01 00:00:00
FILE "15-12 Variations in C, KV.179 on a minuet by J.C. Fischer.flac" WAVE
TRACK 15 AUDIO
TITLE "12 Variations in C, KV.179 on a minuet by J.C.Fischer"
PERFORMER "Ingrid Haebler"
ISRC NLA507506909
INDEX 01 00:00:00
FILE "16-Piano Sonata No.1 in C, KV.279-1. Allegro.flac" WAVE
TRACK 16 AUDIO
TITLE "Piano Sonata No.1 in C, KV.2Allegro"
PERFORMER "Mitsuko Uchida"
ISRC NLA508400305
INDEX 01 00:00:00
FILE "17-Piano Sonata No.1 in C, KV.279-2. Andante.flac" WAVE
TRACK 17 AUDIO
TITLE "Piano Sonata No.1 in C, KV.2Andante"
PERFORMER "Mitsuko Uchida"
INDEX 01 00:00:00
FILE "18-Piano Sonata No.1 in C, KV.279-3. Allegro.flac" WAVE
TRACK 18 AUDIO
TITLE "Piano Sonata No.1 in C, KV.2Allegro"
PERFORMER "Mitsuko Uchida"
ISRC NLA508400307
INDEX 01 00:00:00

CD-003: Chamber - a1 - Piano Sonatas K280-K284 (1774-1775) (01:18:20)

Piano Sonata No. 2 in F, KV.280
01. I. Allegro assai (04:16)
02. II. Adagio (07:06)
03. III. Presto (02:53)
Piano Sonata No. 3 in B flat, KV.281
04. I. Allegro (04:27)
05. II. Andante amoroso (04:54)
06. III. Rondeau (Allegro) (04:34)
Piano Sonata No. 4 in E flat, KV.282
07. I. Adagio (05:51)
08. II. Menuetto I-II (03:58)
09. III. Allegro (02:21)
Piano Sonata No. 5 in G, KV.283
10. I. Allegro (03:45)
11. II. Andante (06:17)
12. III. Presto (03:59)
Piano Sonata No. 6 in D, KV.284 "Dürnitz"
13. I. Allegro (04:49)
14. II. Rondeau en Polonaise (Andante) (04:16)
15. III. Tema con variazioni (14:55)-[1-15] Mitsuko Uchida piano

LOG (CD 3)

Exact Audio Copy V1.1 from 23. June 2015
EAC extraction logfile from 7. November 2016, 23:03
Mitsuko Uchida / CD-003 - Chamber - a1 - Piano Sonatas K280-K284 (1774-1775)
Used drive : ASUS SDRW-08D2S-U Adapter: 1 ID: 1
Read mode : Secure
Utilize accurate stream : Yes
Defeat audio cache : Yes
Make use of C2 pointers : No
Read offset correction : 6
Overread into Lead-In and Lead-Out : No
Fill up missing offset samples with silence : Yes
Delete leading and trailing silent blocks : No
Null samples used in CRC calculations : Yes
Used interface : Native Win32 interface for Win NT & 2000
Gap handling : Appended to previous track
Used output format : User Defined Encoder
Selected bitrate : 1024 kBit/s
Quality : High
Add ID3 tag : No
Command line compressor : C:\Program Files (x86)\foobar2000\FLAC\flac.exe
Additional command line options : -8 -e -V -T "ARTIST=%artist%" -T "TITLE=%title%" -T "ALBUM=%albumtitle%" -T "DATE=%year%" -T "TRACKNUMBER=%tracknr%" -T "GENRE=%genre%" -T "PERFORMER=%albuminterpret%" -T "COMPOSER=%composer%" %haslyrics%--tag-from-file=LYRICS="%lyricsfile%"%haslyrics% -T "ALBUMARTIST=%albumartist%" -T "DISCNUMBER=%cdnumber%" -T "TOTALDISCS=%totalcds%" -T "TOTALTRACKS=%numtracks%" -T "COMMENT=%comment%" %source% -o %dest%
TOC of the extracted CD
Track | Start | Length | Start sector | End sector
---------------------------------------------------------
1 | 0:00.00 | 4:15.55 | 0 | 19179
2 | 4:15.55 | 7:05.73 | 19180 | 51127
3 | 11:21.53 | 2:53.12 | 51128 | 64114
4 | 14:14.65 | 4:27.11 | 64115 | 84150
5 | 18:42.01 | 4:54.05 | 84151 | 106205
6 | 23:36.06 | 4:33.49 | 106206 | 126729
7 | 28:09.55 | 5:50.66 | 126730 | 153045
8 | 34:00.46 | 3:58.20 | 153046 | 170915
9 | 37:58.66 | 2:20.63 | 170916 | 181478
10 | 40:19.54 | 3:45.16 | 181479 | 198369
11 | 44:04.70 | 6:17.09 | 198370 | 226653
12 | 50:22.04 | 3:58.52 | 226654 | 244555
13 | 54:20.56 | 4:48.61 | 244556 | 266216
14 | 59:09.42 | 4:15.43 | 266217 | 285384
15 | 63:25.10 | 14:55.19 | 285385 | 352528
Track 1
Filename C:\Rippy\Mozart_225\CD-003\01 - Piano Sonata No.2 In F, K.280 - 1. Allegro assai.wav
Pre-gap length 0:00:02.00
Peak level 98.2 %
Extraction speed 1.3 X
Track quality 100.0 %
Test CRC ACCA13C6
Copy CRC ACCA13C6
Track not present in AccurateRip database
Copy OK
Track 2
Filename C:\Rippy\Mozart_225\CD-003\02 - Piano Sonata No.2 In F, K.280 - 2. Adagio.wav
Peak level 75.6 %
Extraction speed 1.5 X
Track quality 100.0 %
Test CRC 8789652C
Copy CRC 8789652C
Track not present in AccurateRip database
Copy OK
Track 3
Filename C:\Rippy\Mozart_225\CD-003\03 - Piano Sonata No.2 In F, K.280 - 3. Presto.wav
Peak level 98.2 %
Extraction speed 1.5 X
Track quality 100.0 %
Test CRC 37B0764F
Copy CRC 37B0764F
Track not present in AccurateRip database
Copy OK
Track 4
Filename C:\Rippy\Mozart_225\CD-003\04 - Piano Sonata No.3 in B flat, K.281 - 1. Allegro.wav
Peak level 96.5 %
Extraction speed 1.7 X
Track quality 100.0 %
Test CRC 64592C87
Copy CRC 64592C87
Track not present in AccurateRip database
Copy OK
Track 5
Filename C:\Rippy\Mozart_225\CD-003\05 - Piano Sonata No.3 in B flat, K.281 - 2. Andante amoroso.wav
Peak level 85.3 %
Extraction speed 1.8 X
Track quality 100.0 %
Test CRC FE2E0371
Copy CRC FE2E0371
Track not present in AccurateRip database
Copy OK
Track 6
Filename C:\Rippy\Mozart_225\CD-003\06 - Piano Sonata No.3 in B flat, K.281 - 3. Rondeau (Allegro).wav
Peak level 98.2 %
Extraction speed 1.9 X
Track quality 100.0 %
Test CRC 11BD97A0
Copy CRC 11BD97A0
Track not present in AccurateRip database
Copy OK
Track 7
Filename C:\Rippy\Mozart_225\CD-003\07 - Piano Sonata No.4 in E flat, K.282 - 1. Adagio.wav
Peak level 60.2 %
Extraction speed 2.0 X
Track quality 100.0 %
Test CRC CF632D42
Copy CRC CF632D42
Track not present in AccurateRip database
Copy OK
Track 8
Filename C:\Rippy\Mozart_225\CD-003\08 - Piano Sonata No.4 in E flat, K.282 - 2. Menuetto I-II.wav
Peak level 91.7 %
Extraction speed 2.0 X
Track quality 100.0 %
Test CRC 7AA20899
Copy CRC 7AA20899
Track not present in AccurateRip database
Copy OK
Track 9
Filename C:\Rippy\Mozart_225\CD-003\09 - Piano Sonata No.4 in E flat, K.282 - 3. Allegro.wav
Peak level 86.0 %
Extraction speed 1.9 X
Track quality 100.0 %
Test CRC CAAE31EA
Copy CRC CAAE31EA
Track not present in AccurateRip database
Copy OK
Track 10
Filename C:\Rippy\Mozart_225\CD-003\10 - Piano Sonata No.5 in G, K.283 - 1. Allegro.wav
Peak level 96.6 %
Extraction speed 2.1 X
Track quality 100.0 %
Test CRC 75E91CC1
Copy CRC 75E91CC1
Track not present in AccurateRip database
Copy OK
Track 11
Filename C:\Rippy\Mozart_225\CD-003\11 - Piano Sonata No.5 in G, K.283 - 2. Andante.wav
Peak level 72.0 %
Extraction speed 2.1 X
Track quality 99.9 %
Test CRC E451C9A8
Copy CRC E451C9A8
Track not present in AccurateRip database
Copy OK
Track 12
Filename C:\Rippy\Mozart_225\CD-003\12 - Piano Sonata No.5 in G, K.283 - 3. Presto.wav
Peak level 98.2 %
Extraction speed 2.0 X
Track quality 99.9 %
Test CRC 31E6CB9B
Copy CRC 31E6CB9B
Track not present in AccurateRip database
Copy OK
Track 13
Filename C:\Rippy\Mozart_225\CD-003\13 - Piano Sonata No.6 in D, K.284 "Dürnitz" - 1. Allegro.wav
Peak level 98.2 %
Extraction speed 2.1 X
Track quality 99.9 %
Test CRC A881CCD2
Copy CRC A881CCD2
Track not present in AccurateRip database
Copy OK
Track 14
Filename C:\Rippy\Mozart_225\CD-003\14 - Piano Sonata No.6 in D, K.284 "Dürnitz" - 2. Rondeau en Polonaise (Andante).wav
Peak level 91.2 %
Extraction speed 2.4 X
Track quality 100.0 %
Test CRC E47E627F
Copy CRC E47E627F
Track not present in AccurateRip database
Copy OK
Track 15
Filename C:\Rippy\Mozart_225\CD-003\15 - Piano Sonata No.6 in D, K.284 "Dürnitz" - 3. Tema con variazione.wav
Peak level 98.2 %
Extraction speed 2.8 X
Track quality 100.0 %
Test CRC B9118E5B
Copy CRC B9118E5B
Track not present in AccurateRip database
Copy OK
None of the tracks are present in the AccurateRip database
No errors occurred
End of status report
---- CUETools DB Plugin V2.1.6
[CTDB TOCID: qqVMUS4VcAAkg6DE11Qa2w7z7BY-] found
Submit result: qqVMUS4VcAAkg6DE11Qa2w7z7BY- has been confirmed
Track | CTDB Status
1 | (1/1) Accurately ripped
2 | (1/1) Accurately ripped
3 | (1/1) Accurately ripped
4 | (1/1) Accurately ripped
5 | (1/1) Accurately ripped
6 | (1/1) Accurately ripped
7 | (1/1) Accurately ripped
8 | (1/1) Accurately ripped
9 | (1/1) Accurately ripped
10 | (1/1) Accurately ripped
11 | (1/1) Accurately ripped
12 | (1/1) Accurately ripped
13 | (1/1) Accurately ripped
14 | (1/1) Accurately ripped
15 | (1/1) Accurately ripped
==== Log checksum 5C119518833AE9F94965BC311863125062317A14B8EE2F90E045992B1CC08F47 ====

CUE (CD 3)

REM DATE 2016
REM GENRE Chamber Music
REM DISCID C0125C0F
REM COMMENT ExactAudioCopy v1.1
CATALOG 0028947897903
PERFORMER "Mitsuko Uchida"
TITLE "CD-003-Chamber-a1-Piano Sonatas KV.280-284 (1774-1775)"
FILE "01-Piano Sonata No.2 In F, KV.280 I.Allegro assai.flac" WAVE
TRACK 01 AUDIO
TITLE "Piano Sonata No.2 In F, KV.280 I.Allegro assai"
PERFORMER "Mitsuko Uchida"
ISRC NLA508542501
INDEX 01 00:00:00
FILE "02-Piano Sonata No.2 In F, KV.280 II.Adagio.flac" WAVE
TRACK 02 AUDIO
TITLE "Piano Sonata No.2 In F, KV.280 II.Adagio"
PERFORMER "Mitsuko Uchida"
ISRC NLA508542502
INDEX 01 00:00:00
FILE "03-Piano Sonata No.2 In F, KV.280 III.Presto.flac" WAVE
TRACK 03 AUDIO
TITLE "Piano Sonata No.2 In F, KV.280 III.Presto"
PERFORMER "Mitsuko Uchida"
ISRC NLA508542503
INDEX 01 00:00:00
FILE "04-Piano Sonata No.3 in B flat, KV.281 I.Allegro.flac" WAVE
TRACK 04 AUDIO
TITLE "Piano Sonata No.3 in B flat, KV.281 I.Allegro"
PERFORMER "Mitsuko Uchida"
ISRC NLA508542504
INDEX 01 00:00:00
FILE "05-Piano Sonata No.3 in B flat, KV.281 II.Andante amoroso.flac" WAVE
TRACK 05 AUDIO
TITLE "Piano Sonata No.3 in B flat, KV.281 II.Andante amoroso"
PERFORMER "Mitsuko Uchida"
ISRC NLA508542505
INDEX 01 00:00:00
FILE "06-Piano Sonata No.3 in B flat, KV.281 III.Rondeau (Allegro).flac" WAVE
TRACK 06 AUDIO
TITLE "Piano Sonata No.3 in B flat, KV.281 III.Rondeau (Allegro)"
PERFORMER "Mitsuko Uchida"
ISRC NLA508542506
INDEX 01 00:00:00
FILE "07-Piano Sonata No.4 in E flat, KV.282 I.Adagio.flac" WAVE
TRACK 07 AUDIO
TITLE "Piano Sonata No.4 in E flat, KV.282 I.Adagio"
PERFORMER "Mitsuko Uchida"
ISRC NLA508542507
INDEX 01 00:00:00
FILE "08-Piano Sonata No.4 in E flat, KV.282 II.Menuetto I-II.flac" WAVE
TRACK 08 AUDIO
TITLE "Piano Sonata No.4 in E flat, KV.282 II.Menuetto I-II"
PERFORMER "Mitsuko Uchida"
ISRC NLA508542508
INDEX 01 00:00:00
FILE "09-Piano Sonata No.4 in E flat, KV.282 III.Allegro.flac" WAVE
TRACK 09 AUDIO
TITLE "Piano Sonata No.4 in E flat, KV.282 III.Allegro"
PERFORMER "Mitsuko Uchida"
ISRC NLA508542508
INDEX 01 00:00:00
FILE "10-Piano Sonata No.5 in G, KV.283 I.Allegro.flac" WAVE
TRACK 10 AUDIO
TITLE "Piano Sonata No.5 in G, KV.283 I.Allegro"
PERFORMER "Mitsuko Uchida"
ISRC NLA508542510
INDEX 01 00:00:00
FILE "11-Piano Sonata No.5 in G, KV.283 II.Andante.flac" WAVE
TRACK 11 AUDIO
TITLE "Piano Sonata No.5 in G, KV.283 II.Andante"
PERFORMER "Mitsuko Uchida"
ISRC NLA508542511
INDEX 01 00:00:00
FILE "12-Piano Sonata No.5 in G, KV.283 III.Presto.flac" WAVE
TRACK 12 AUDIO
TITLE "Piano Sonata No.5 in G, KV.283 III.Presto"
PERFORMER "Mitsuko Uchida"
ISRC NLA508542512
INDEX 01 00:00:00
FILE "13-Piano Sonata No.6 in D, KV.284 'Durnitz' I.Allegro.flac" WAVE
TRACK 13 AUDIO
TITLE "Piano Sonata No.6 in D, KV.284 'Durnitz' I.Allegro"
PERFORMER "Mitsuko Uchida"
ISRC NLA508542512
INDEX 01 00:00:00
FILE "14-Piano Sonata No.6 in D, KV.284 'Durnitz' II.Rondeau en Polonaise (Andante).flac" WAVE
TRACK 14 AUDIO
TITLE "Piano Sonata No.6 in D, KV.284 'Durnitz' II.Rondeau en Polonaise (Andante)"
PERFORMER "Mitsuko Uchida"
ISRC NLA508542402
INDEX 01 00:00:00
FILE "15-Piano Sonata No.6 in D, KV.284 'Durnitz' III.Tema con variazione.flac" WAVE
TRACK 15 AUDIO
TITLE "Piano Sonata No.6 in D, KV.284 'Durnitz' III.Tema con variazione"
PERFORMER "Mitsuko Uchida"
ISRC NLA508542403
INDEX 01 00:00:00

CD-004: Chamber - a1 - Piano Sonatas K309-K311; Variations K354 (1777-1778) (01:13:14)

Piano Sonata No. 9 in D, KV.311
01. I. Allegro con spirito (04:24)
02. II. Andantino con espressione (05:45)
03. III. Rondeau (Allegro) (06:48)
Piano Sonata No. 7 in C, KV.309
04. I. Allegro con spirito (05:32)
05. II. Andante, un poco adagio (04:47)
06. III. Rondeau (Allegretto grazioso) (05:58)
07. 12 Variations on "Je suis Lindor" by A.L.Baudron, in E flat, KV.354 (18:18)
Piano Sonata No. 8 in a, KV.310
08. I. Allegro maestoso (08:04)
09. II. Andante cantabile con espressione (10:42)
10. III. Presto (02:56)-[1-3] Alfred Brendel piano
[4-6] Mitsuko Uchida piano
[7] Ingrid Haebler piano
[8-10] Mitsuko Uchida piano

LOG (CD 4)

Exact Audio Copy V1.1 from 23. June 2015
EAC extraction logfile from 7. November 2016, 23:04
Various / CD-004 - Chamber - a1 - Piano Sonatas K309-K311; Variations K354 (1777-1778)
Used drive : MATSHITACD-ROM CR-587 Adapter: 1 ID: 0
Read mode : Secure
Utilize accurate stream : Yes
Defeat audio cache : Yes
Make use of C2 pointers : No
Read offset correction : 103
Overread into Lead-In and Lead-Out : No
Fill up missing offset samples with silence : Yes
Delete leading and trailing silent blocks : No
Null samples used in CRC calculations : Yes
Used interface : Native Win32 interface for Win NT & 2000
Gap handling : Appended to previous track
Used output format : User Defined Encoder
Selected bitrate : 1024 kBit/s
Quality : High
Add ID3 tag : No
Command line compressor : C:\Program Files (x86)\foobar2000\FLAC\flac.exe
Additional command line options : -8 -e -V -T "ARTIST=%artist%" -T "TITLE=%title%" -T "ALBUM=%albumtitle%" -T "DATE=%year%" -T "TRACKNUMBER=%tracknr%" -T "GENRE=%genre%" -T "PERFORMER=%albuminterpret%" -T "COMPOSER=%composer%" %haslyrics%--tag-from-file=LYRICS="%lyricsfile%"%haslyrics% -T "ALBUMARTIST=%albumartist%" -T "DISCNUMBER=%cdnumber%" -T "TOTALDISCS=%totalcds%" -T "TOTALTRACKS=%numtracks%" -T "COMMENT=%comment%" %source% -o %dest%
TOC of the extracted CD
Track | Start | Length | Start sector | End sector
---------------------------------------------------------
1 | 0:00.00 | 4:24.14 | 0 | 19813
2 | 4:24.14 | 5:45.00 | 19814 | 45688
3 | 10:09.14 | 6:48.02 | 45689 | 76290
4 | 16:57.16 | 5:32.32 | 76291 | 101222
5 | 22:29.48 | 4:46.39 | 101223 | 122711
6 | 27:16.12 | 5:58.37 | 122712 | 149598
7 | 33:14.49 | 18:17.62 | 149599 | 231935
8 | 51:32.36 | 8:03.72 | 231936 | 268232
9 | 59:36.33 | 10:41.52 | 268233 | 316359
10 | 70:18.10 | 2:55.56 | 316360 | 329540
Track 1
Filename C:\Rippy\Mozart_225\CD-004\01 - Piano Sonata No.9 in D, K.311 - 1. Allegro con spirito.wav
Pre-gap length 0:00:02.00
Peak level 80.7 %
Extraction speed 1.5 X
Track quality 100.0 %
Test CRC AB4FFE4B
Copy CRC AB4FFE4B
Track not present in AccurateRip database
Copy OK
Track 2
Filename C:\Rippy\Mozart_225\CD-004\02 - Piano Sonata No.9 in D, K.311 - 2. Andantino con espressione.wav
Peak level 98.2 %
Extraction speed 1.8 X
Track quality 100.0 %
Test CRC 0EAF3058
Copy CRC 0EAF3058
Track not present in AccurateRip database
Copy OK
Track 3
Filename C:\Rippy\Mozart_225\CD-004\03 - Piano Sonata No.9 in D, K.311 - 3. Rondeau (Allegro).wav
Peak level 96.9 %
Extraction speed 1.8 X
Track quality 99.9 %
Test CRC 07159D51
Copy CRC 07159D51
Track not present in AccurateRip database
Copy OK
Track 4
Filename C:\Rippy\Mozart_225\CD-004\04 - Piano Sonata No.7 in C, K.309 - 1. Allegro con spirito.wav
Peak level 97.9 %
Extraction speed 2.1 X
Track quality 100.0 %
Test CRC F26805D4
Copy CRC F26805D4
Track not present in AccurateRip database
Copy OK
Track 5
Filename C:\Rippy\Mozart_225\CD-004\05 - Piano Sonata No.7 in C, K.309 - 2. Andante, un poco adagio.wav
Peak level 92.7 %
Extraction speed 2.0 X
Track quality 99.9 %
Test CRC BF443E7B
Copy CRC BF443E7B
Track not present in AccurateRip database
Copy OK
Track 6
Filename C:\Rippy\Mozart_225\CD-004\06 - Piano Sonata No.7 in C, K.309 - 3. Rondeau (Allegretto grazioso).wav
Peak level 90.6 %
Extraction speed 2.4 X
Track quality 100.0 %
Test CRC 06458406
Copy CRC 06458406
Track not present in AccurateRip database
Copy OK
Track 7
Filename C:\Rippy\Mozart_225\CD-004\07 - 12 Variations in E flat, K.354 on "Je suis Lindor" by A.L. Baudron.wav
Peak level 98.2 %
Extraction speed 2.9 X
Track quality 100.0 %
Test CRC 3F5E14B6
Copy CRC 3F5E14B6
Track not present in AccurateRip database
Copy OK
Track 8
Filename C:\Rippy\Mozart_225\CD-004\08 - Piano Sonata No.8 in A minor, K.310 - 1. Allegro maestoso.wav
Peak level 98.2 %
Extraction speed 3.1 X
Track quality 100.0 %
Test CRC 7E0C8BDE
Copy CRC 7E0C8BDE
Track not present in AccurateRip database
Copy OK
Track 9
Filename C:\Rippy\Mozart_225\CD-004\09 - Piano Sonata No.8 in A minor, K.310 - 2. Andante cantabile con espressione.wav
Peak level 88.9 %
Extraction speed 3.3 X
Track quality 100.0 %
Test CRC 552E0917
Copy CRC 552E0917
Track not present in AccurateRip database
Copy OK
Track 10
Filename C:\Rippy\Mozart_225\CD-004\10 - Piano Sonata No.8 in A minor, K.310 - 3. Presto.wav
Peak level 93.9 %
Extraction speed 3.0 X
Track quality 100.0 %
Test CRC EB2F6A2A
Copy CRC EB2F6A2A
Track not present in AccurateRip database
Copy OK
None of the tracks are present in the AccurateRip database
No errors occurred
End of status report
---- CUETools DB Plugin V2.1.6
[CTDB TOCID: CfcvlwZiNHZxYlODmFRqhPWAvpk-] found
Submit result: CfcvlwZiNHZxYlODmFRqhPWAvpk- has been confirmed
Track | CTDB Status
1 | (1/1) Accurately ripped
2 | (1/1) Accurately ripped
3 | (1/1) Accurately ripped
4 | (1/1) Accurately ripped
5 | (1/1) Accurately ripped
6 | (1/1) Accurately ripped
7 | (1/1) Accurately ripped
8 | (1/1) Accurately ripped
9 | (1/1) Accurately ripped
10 | (1/1) Accurately ripped
==== Log checksum 0BFAE8B575695D26C84858E9B404C457813D139630618A7D8D468ABA83CB9A6B ====

CUE (CD 4)

REM DATE 2016
REM GENRE Chamber Music
REM DISCID 8711290A
REM COMMENT ExactAudioCopy v1.1
CATALOG 0028947897910
PERFORMER "Various Artists"
TITLE "CD-004-Chamber-a1-Piano Sonatas KV.309-311; Variations KV.354 (1777-1778)"
FILE "01-Piano Sonata No.9 in D, KV.311 I.Allegro con spirito.flac" WAVE
TRACK 01 AUDIO
TITLE "Piano Sonata No.9 in D, KV.311 I.Allegro con spirito"
PERFORMER "Alfred Brendel"
ISRC GBBBA0200331
INDEX 01 00:00:00
FILE "02-Piano Sonata No.9 in D, KV.311 II.Andantino con espressione.flac" WAVE
TRACK 02 AUDIO
TITLE "Piano Sonata No.9 in D, KV.311 II.Andantino con espressione"
PERFORMER "Alfred Brendel"
ISRC GBBBA0200332
INDEX 01 00:00:00
FILE "03-Piano Sonata No.9 in D, KV.311 III.Rondeau (Allegro).flac" WAVE
TRACK 03 AUDIO
TITLE "Piano Sonata No.9 in D, KV.311 III.Rondeau (Allegro)"
PERFORMER "Alfred Brendel"
ISRC GBBBA0200333
INDEX 01 00:00:00
FILE "04-Piano Sonata No.7 in C, KV.309 I.Allegro con spirito.flac" WAVE
TRACK 04 AUDIO
TITLE "Piano Sonata No.7 in C, KV.309 I.Allegro con spirito"
PERFORMER "Mitsuko Uchida"
ISRC NLA508401601
INDEX 01 00:00:00
FILE "05-Piano Sonata No.7 in C, KV.309 II.Andante, un poco adagio.flac" WAVE
TRACK 05 AUDIO
TITLE "Piano Sonata No.7 in C, KV.309 II.Andante, un poco adagio"
PERFORMER "Mitsuko Uchida"
ISRC NLA508401602
INDEX 01 00:00:00
FILE "06-Piano Sonata No.7 in C, KV.309 III.Rondeau (Allegretto grazioso).flac" WAVE
TRACK 06 AUDIO
TITLE "Piano Sonata No.7 in C, KV.309 III.Rondeau (Allegretto grazioso)"
PERFORMER "Mitsuko Uchida"
ISRC NLA508401603
INDEX 01 00:00:00
FILE "07-12 Variations in E flat, KV.354 on 'Je suis Lindor' by A.L. Baudron.flac" WAVE
TRACK 07 AUDIO
TITLE "12 Variations in E flat, KV.354 on 'Je suis Lindor' by A.L.Baudron"
PERFORMER "Ingrid Haebler"
INDEX 01 00:00:00
FILE "08-Piano Sonata No.8 in A minor, KV.310 I.Allegro maestoso.flac" WAVE
TRACK 08 AUDIO
TITLE "Piano Sonata No.8 in A minor, KV.310 I.Allegro maestoso"
PERFORMER "Mitsuko Uchida"
ISRC NLA508401607
INDEX 01 00:00:00
FILE "09-Piano Sonata No.8 in A minor, KV.310 II.Andante cantabile con espressione.flac" WAVE
TRACK 09 AUDIO
TITLE "Piano Sonata No.8 in A minor, KV.310 II.Andante cantabile con espressione"
PERFORMER "Mitsuko Uchida"
ISRC NLA508401608
INDEX 01 00:00:00
FILE "10-Piano Sonata No.8 in A minor, KV.310 III.Presto.flac" WAVE
TRACK 10 AUDIO
TITLE "Piano Sonata No.8 in A minor, KV.310 III.Presto"
PERFORMER "Mitsuko Uchida"
ISRC NLA508401609
INDEX 01 00:00:00

CD-005: Chamber - a1 - Variations K264, K265, K352, K353, K398; Piano Sonata K332 (1778-1783) (01:23:49)

01. 9 Variations on "Lison dormait" by N.Dezede, in C, KV.264 (15:48)
02. 12 Variations on "Ah, vous dirai-je Maman" in C, KV.265 (14:08)
03. 12 Variations on "La belle Françoise" in E flat, KV.353 (14:14)
04. 8 Variations on "Dieu d'amour" by A.E.Gretry, in F, KV.352 (12:57)
Piano Sonata No. 12 in F, KV.332
05. I. Allegro (07:26)
06. II. Adagio (05:11)
07. III. Allegro assai (07:10)
08. 6 Variations on "Salve tu, Domine" by G.Paisiello, in F, KV.398 (06:55)-[1] Ingrid Haebler piano
[2] András Schiff piano
[3-4] Ingrid Haebler piano
[5-7] Alfred Brendel piano
[8] Ingrid Haebler piano

LOG (CD 5)

Exact Audio Copy V1.1 from 23. June 2015
EAC extraction logfile from 8. November 2016, 18:02
Various / CD-005 - Chamber - a1 - Variations K264, K265, K352, K353, K398; Piano Sonata in F K332 (1778-1783)
Used drive : ASUS SDRW-08D2S-U Adapter: 1 ID: 1
Read mode : Secure
Utilize accurate stream : Yes
Defeat audio cache : Yes
Make use of C2 pointers : No
Read offset correction : 6
Overread into Lead-In and Lead-Out : No
Fill up missing offset samples with silence : Yes
Delete leading and trailing silent blocks : No
Null samples used in CRC calculations : Yes
Used interface : Native Win32 interface for Win NT & 2000
Gap handling : Appended to previous track
Used output format : User Defined Encoder
Selected bitrate : 1024 kBit/s
Quality : High
Add ID3 tag : No
Command line compressor : C:\Program Files (x86)\foobar2000\FLAC\flac.exe
Additional command line options : -8 -e -V -T "ARTIST=%artist%" -T "TITLE=%title%" -T "ALBUM=%albumtitle%" -T "DATE=%year%" -T "TRACKNUMBER=%tracknr%" -T "GENRE=%genre%" -T "PERFORMER=%albuminterpret%" -T "COMPOSER=%composer%" %haslyrics%--tag-from-file=LYRICS="%lyricsfile%"%haslyrics% -T "ALBUMARTIST=%albumartist%" -T "DISCNUMBER=%cdnumber%" -T "TOTALDISCS=%totalcds%" -T "TOTALTRACKS=%numtracks%" -T "COMMENT=%comment%" %source% -o %dest%
TOC of the extracted CD
Track | Start | Length | Start sector | End sector
---------------------------------------------------------
1 | 0:00.00 | 15:47.54 | 0 | 71078
2 | 15:47.54 | 14:07.73 | 71079 | 134676
3 | 29:55.52 | 14:14.08 | 134677 | 198734
4 | 44:09.60 | 12:56.63 | 198735 | 256997
5 | 57:06.48 | 7:25.65 | 256998 | 290437
6 | 64:32.38 | 5:11.09 | 290438 | 313771
7 | 69:43.47 | 7:10.09 | 313772 | 346030
8 | 76:53.56 | 6:55.37 | 346031 | 377192
Track 1
Filename C:\Rippy\Mozart_225\CD-005\01 - Nine Variations in C, K.264 on "Lison dormait" by N. Dezède.wav
Pre-gap length 0:00:02.00
Peak level 96.6 %
Extraction speed 1.4 X
Track quality 100.0 %
Test CRC 2AC1533F
Copy CRC 2AC1533F
Track not present in AccurateRip database
Copy OK
Track 2
Filename C:\Rippy\Mozart_225\CD-005\02 - 12 Variations in C Major on "Ah, vous dirai-je Maman", K.265.wav
Peak level 97.4 %
Extraction speed 1.7 X
Track quality 100.0 %
Test CRC 2BD6E817
Copy CRC 2BD6E817
Track not present in AccurateRip database
Copy OK
Track 3
Filename C:\Rippy\Mozart_225\CD-005\03 - 12 Variations in E flat, K.353 on "La belle Françoise".wav
Peak level 94.6 %
Extraction speed 1.9 X
Track quality 100.0 %
Test CRC 0ABC2E29
Copy CRC 0ABC2E29
Track not present in AccurateRip database
Copy OK
Track 4
Filename C:\Rippy\Mozart_225\CD-005\04 - Eight Variations in F, K.352 on "Dieu d'amour" by A.E. Grétry.wav
Peak level 93.1 %
Extraction speed 2.0 X
Track quality 100.0 %
Test CRC 939827CF
Copy CRC 939827CF
Track not present in AccurateRip database
Copy OK
Track 5
Filename C:\Rippy\Mozart_225\CD-005\05 - Piano Sonata No.12 In F, K.332 - 1. Allegro.wav
Peak level 95.8 %
Extraction speed 1.9 X
Track quality 99.9 %
Test CRC 704B628A
Copy CRC 704B628A
Track not present in AccurateRip database
Copy OK
Track 6
Filename C:\Rippy\Mozart_225\CD-005\06 - Piano Sonata No.12 In F, K.332 - 2. Adagio.wav
Peak level 80.9 %
Extraction speed 2.0 X
Track quality 100.0 %
Test CRC 93F78E7B
Copy CRC 93F78E7B
Track not present in AccurateRip database
Copy OK
Track 7
Filename C:\Rippy\Mozart_225\CD-005\07 - Piano Sonata No.12 In F, K.332 - 3. Allegro assai.wav
Peak level 97.6 %
Extraction speed 2.2 X
Track quality 100.0 %
Test CRC 534C3C83
Copy CRC 534C3C83
Track not present in AccurateRip database
Copy OK
Track 8
Filename C:\Rippy\Mozart_225\CD-005\08 - Six Variations in F, K.398 on "Salve tu, Domine" by D. Paisiello.wav
Peak level 92.5 %
Extraction speed 2.2 X
Track quality 100.0 %
Test CRC 49042940
Copy CRC 49042940
Track not present in AccurateRip database
Copy OK
None of the tracks are present in the AccurateRip database
No errors occurred
End of status report
---- CUETools DB Plugin V2.1.6
[CTDB TOCID: 3V45mzfhU2X5rkpJf_gVYKJbb1E-] found
Submit result: 3V45mzfhU2X5rkpJf_gVYKJbb1E- has been confirmed
Track | CTDB Status
1 | (1/1) Accurately ripped
2 | (1/1) Accurately ripped
3 | (1/1) Accurately ripped
4 | (1/1) Accurately ripped
5 | (1/1) Accurately ripped
6 | (1/1) Accurately ripped
7 | (1/1) Accurately ripped
8 | (1/1) Accurately ripped
==== Log checksum 31721F8B06DEFF78196B331BFD949EAD7E929E2A9408A87A4DB9DC5229E4B552 ====

CUE (CD 5)

REM DATE 2016
REM GENRE Chamber Music
REM DISCID 8713A508
REM COMMENT ExactAudioCopy v1.1
CATALOG 0028947897927
PERFORMER "Various Artists"
TITLE "CD-005-Chamber-a1-Variations KV.264, KV.265, KV.352, KV.353, KV.398; Piano Sonata in F KV.332"
FILE "01-Nine Variations in C, KV.264 on 'Lison dormait' by N. Dezede.flac" WAVE
TRACK 01 AUDIO
TITLE "Nine Variations in C, KV.264 on 'Lison dormait' by N.Dezede"
PERFORMER "Ingrid Haebler"
ISRC NLA507506912
INDEX 01 00:00:00
FILE "02-12 Variations in C Major on 'Ah, vous dirai-je Maman', KV.265.flac" WAVE
TRACK 02 AUDIO
TITLE "12 Variations in C Major on 'Ah, vous dirai-je Maman', KV.265"
PERFORMER "Andras Schiff"
ISRC GBF078611430
INDEX 01 00:00:00
FILE "03-12 Variations in E flat, KV.353 on 'La belle Francoise'.flac" WAVE
TRACK 03 AUDIO
TITLE "12 Variations in E flat, KV.353 on 'La belle Francoise'"
PERFORMER "Ingrid Haebler"
ISRC GBF078611430
INDEX 01 00:00:00
FILE "04-Eight Variations in F, KV.352 on 'Dieu d'amour' by A.E. Gretry.flac" WAVE
TRACK 04 AUDIO
TITLE "Eight Variations in F, KV.352 on 'Dieu d'amour' by A.E.Gretry"
PERFORMER "Ingrid Haebler"
ISRC NLA507506908
INDEX 01 00:00:00
FILE "05-Piano Sonata No.12 In F, KV.332 I.Allegro.flac" WAVE
TRACK 05 AUDIO
TITLE "Piano Sonata No.12 In F, KV.332 I.Allegro"
PERFORMER "Alfred Brendel"
ISRC NLA507506908
INDEX 01 00:00:00
FILE "06-Piano Sonata No.12 In F, KV.332 II.Adagio.flac" WAVE
TRACK 06 AUDIO
TITLE "Piano Sonata No.12 In F, KV.332 II.Adagio"
PERFORMER "Alfred Brendel"
ISRC GBBBB9904310
INDEX 01 00:00:00
FILE "07-Piano Sonata No.12 In F, KV.332 III.Allegro assai.flac" WAVE
TRACK 07 AUDIO
TITLE "Piano Sonata No.12 In F, KV.332 III.Allegro assai"
PERFORMER "Alfred Brendel"
ISRC GBBBB9904311
INDEX 01 00:00:00
FILE "08-Six Variations in F, KV.398 on 'Salve tu, Domine' by D. Paisiello.flac" WAVE
TRACK 08 AUDIO
TITLE "Six Variations in F, KV.398 on 'Salve tu, Domine' by D.Paisiello"
PERFORMER "Ingrid Haebler"
ISRC NLA507506903
INDEX 01 00:00:00

CD-006: Chamber - a1 - Piano Sonata K330; Piano Sonata K331; Piano Sonata K333 (1783) (01:04:23)

Piano Sonata No. 10 in C, KV.330
01. I. Allegro moderato (07:04)
02. II. Andante cantabile (06:00)
03. III. Allegretto (06:24)
Piano Sonata No. 11 'Alla Turca' in A, KV.331 - Original Manuscript Version
04. I. Andante grazioso (13:51)
05. II. Menuetto (05:28)
06. III. Allegretto - Alla Turca (03:24)
Piano Sonata No. 13 in B flat, KV.333
07. I. Allegro (07:39)
08. II. Andante cantabile (08:04)
09. III. Allegretto grazioso (06:30)-[1-3] Alfred Brendel piano
[4-6] Recording from newly discovered manuscript (2014)
Francesco Piemontesi piano

[7-9] Alfred Brendel piano

LOG (CD 6)

Exact Audio Copy V1.1 from 23. June 2015
EAC extraction logfile from 8. November 2016, 18:02
Various / CD-006 - Chamber - a1 - Piano Sonata in C K330; Piano Sonata in A K331; Piano Sonata in B♭ K333 (1783)
Used drive : MATSHITACD-ROM CR-587 Adapter: 1 ID: 0
Read mode : Secure
Utilize accurate stream : Yes
Defeat audio cache : Yes
Make use of C2 pointers : No
Read offset correction : 103
Overread into Lead-In and Lead-Out : No
Fill up missing offset samples with silence : Yes
Delete leading and trailing silent blocks : No
Null samples used in CRC calculations : Yes
Used interface : Native Win32 interface for Win NT & 2000
Gap handling : Appended to previous track
Used output format : User Defined Encoder
Selected bitrate : 1024 kBit/s
Quality : High
Add ID3 tag : No
Command line compressor : C:\Program Files (x86)\foobar2000\FLAC\flac.exe
Additional command line options : -8 -e -V -T "ARTIST=%artist%" -T "TITLE=%title%" -T "ALBUM=%albumtitle%" -T "DATE=%year%" -T "TRACKNUMBER=%tracknr%" -T "GENRE=%genre%" -T "PERFORMER=%albuminterpret%" -T "COMPOSER=%composer%" %haslyrics%--tag-from-file=LYRICS="%lyricsfile%"%haslyrics% -T "ALBUMARTIST=%albumartist%" -T "DISCNUMBER=%cdnumber%" -T "TOTALDISCS=%totalcds%" -T "TOTALTRACKS=%numtracks%" -T "COMMENT=%comment%" %source% -o %dest%
TOC of the extracted CD
Track | Start | Length | Start sector | End sector
---------------------------------------------------------
1 | 0:00.00 | 7:03.42 | 0 | 31766
2 | 7:03.42 | 6:00.34 | 31767 | 58800
3 | 13:04.01 | 6:23.73 | 58801 | 87598
4 | 19:27.74 | 13:50.61 | 87599 | 149909
5 | 33:18.60 | 5:27.47 | 149910 | 174481
6 | 38:46.32 | 3:23.44 | 174482 | 189750
7 | 42:10.01 | 7:38.46 | 189751 | 224146
8 | 49:48.47 | 8:04.20 | 224147 | 260466
9 | 57:52.67 | 6:30.17 | 260467 | 289733
Track 1
Filename C:\Rippy\Mozart_225\CD-006\01 - Piano Sonata No.10 In C Major, K.330 - 1. Allegro moderato.wav
Pre-gap length 0:00:02.00
Peak level 84.6 %
Extraction speed 1.7 X
Track quality 100.0 %
Test CRC BF6CE5A5
Copy CRC BF6CE5A5
Track not present in AccurateRip database
Copy OK
Track 2
Filename C:\Rippy\Mozart_225\CD-006\02 - Piano Sonata No.10 In C Major, K.330 - 2. Andante cantabile.wav
Peak level 83.2 %
Extraction speed 1.9 X
Track quality 100.0 %
Test CRC 569F0804
Copy CRC 569F0804
Track not present in AccurateRip database
Copy OK
Track 3
Filename C:\Rippy\Mozart_225\CD-006\03 - Piano Sonata No.10 In C Major, K.330 - 3. Allegretto.wav
Peak level 88.5 %
Extraction speed 2.2 X
Track quality 100.0 %
Test CRC 529EF323
Copy CRC 529EF323
Track not present in AccurateRip database
Copy OK
Track 4
Filename C:\Rippy\Mozart_225\CD-006\04 - Piano Sonata No.11 In A, K.331 - "Alla Turca" - Original Manuscript Version - 1. Andante grazioso.wav
Peak level 88.5 %
Extraction speed 2.6 X
Track quality 100.0 %
Test CRC 3DE2495F
Copy CRC 3DE2495F
Track not present in AccurateRip database
Copy OK
Track 5
Filename C:\Rippy\Mozart_225\CD-006\05 - Piano Sonata No.11 In A, K.331 - "Alla Turca" - Original Manuscript Version - 2. Menuetto.wav
Peak level 88.5 %
Extraction speed 2.7 X
Track quality 100.0 %
Test CRC B9D3A0A4
Copy CRC B9D3A0A4
Track not present in AccurateRip database
Copy OK
Track 6
Filename C:\Rippy\Mozart_225\CD-006\06 - Piano Sonata No.11 In A, K.331 - "Alla Turca" - Original Manuscript Version - 3. Allegretto- Alla Turca.wav
Peak level 88.5 %
Extraction speed 2.7 X
Track quality 100.0 %
Test CRC CE60376D
Copy CRC CE60376D
Track not present in AccurateRip database
Copy OK
Track 7
Filename C:\Rippy\Mozart_225\CD-006\07 - Piano Sonata No.13 In B Flat, K.333 - 1. Allegro.wav
Peak level 83.3 %
Extraction speed 3.1 X
Track quality 100.0 %
Test CRC D1A60E6C
Copy CRC D1A60E6C
Track not present in AccurateRip database
Copy OK
Track 8
Filename C:\Rippy\Mozart_225\CD-006\08 - Piano Sonata No.13 In B Flat, K.333 - 2. Andante cantabile.wav
Peak level 69.3 %
Extraction speed 3.3 X
Track quality 100.0 %
Test CRC DA6D4640
Copy CRC DA6D4640
Track not present in AccurateRip database
Copy OK
Track 9
Filename C:\Rippy\Mozart_225\CD-006\09 - Piano Sonata No.13 In B Flat, K.333 - 3. Allegretto grazioso.wav
Peak level 79.8 %
Extraction speed 3.4 X
Track quality 100.0 %
Test CRC 166757A5
Copy CRC 166757A5
Track not present in AccurateRip database
Copy OK
None of the tracks are present in the AccurateRip database
No errors occurred
End of status report
---- CUETools DB Plugin V2.1.6
[CTDB TOCID: DBUZDox839E.zRP6vO6p6vVTVsk-] found
Submit result: DBUZDox839E.zRP6vO6p6vVTVsk- has been confirmed
Track | CTDB Status
1 | (2/2) Accurately ripped
2 | (2/2) Accurately ripped
3 | (2/2) Accurately ripped
4 | (2/2) Accurately ripped
5 | (2/2) Accurately ripped
6 | (2/2) Accurately ripped
7 | (2/2) Accurately ripped
8 | (2/2) Accurately ripped
9 | (2/2) Accurately ripped
==== Log checksum 1FD9BC15331CCA476FF9539C5EA50A3EDC81F86A1E630471770E093C2D21E98E ====

CUE (CD 6)

REM DATE 2016
REM GENRE Chamber Music
REM DISCID 760F1709
REM COMMENT ExactAudioCopy v1.1
CATALOG 0028947897934
PERFORMER "Various Artists"
TITLE "CD-006-Chamber-a1-Piano Sonata in C KV.330; Piano Sonata in A KV.331; Piano Sonata in B? KV.333 (1783)"
FILE "01-Piano Sonata No.10 In C Major, KV.330 I.Allegro moderato.flac" WAVE
TRACK 01 AUDIO
TITLE "Piano Sonata No.10 In C Major, KV.330 I.Allegro moderato"
PERFORMER "Alfred Brendel"
ISRC NLA509807908
INDEX 01 00:00:00
FILE "02-Piano Sonata No.10 In C Major, KV.330 II.Andante cantabile.flac" WAVE
TRACK 02 AUDIO
TITLE "Piano Sonata No.10 In C Major, KV.330 II.Andante cantabile"
PERFORMER "Alfred Brendel"
ISRC NLA509807909
INDEX 01 00:00:00
FILE "03-Piano Sonata No.10 In C Major, KV.330 III.Allegretto.flac" WAVE
TRACK 03 AUDIO
TITLE "Piano Sonata No.10 In C Major, KV.330 III.Allegretto"
PERFORMER "Alfred Brendel"
INDEX 01 00:00:00
FILE "04-Piano Sonata No.11 In A, KV.331-'Alla Turca'-Original Manuscript Version I.Andante grazioso.flac" WAVE
TRACK 04 AUDIO
TITLE "Piano Sonata No.11 In A, KV.3'Alla Turca'-Original Manuscript Version I.Andante grazioso"
PERFORMER "Francesco Piemontesi"
ISRC GBF071600201
INDEX 01 00:00:00
FILE "05-Piano Sonata No.11 In A, KV.331-'Alla Turca'-Original Manuscript Version II.Menuetto.flac" WAVE
TRACK 05 AUDIO
TITLE "Piano Sonata No.11 In A, KV.3'Alla Turca'-Original Manuscript Version I.Andante grazioso"
PERFORMER "Francesco Piemontesi"
ISRC GBF071600202
INDEX 01 00:00:00
FILE "06-Piano Sonata No.11 In A, KV.331-'Alla Turca'-Original Manuscript Version III.Allegretto- Alla Turca.flac" WAVE
TRACK 06 AUDIO
TITLE "Piano Sonata No.11 In A, KV.3'Alla Turca'-Original Manuscript Version I.Andante grazioso"
PERFORMER "Francesco Piemontesi"
ISRC GBF071600203
INDEX 01 00:00:00
FILE "07-Piano Sonata No.13 In B Flat, KV.333 I.Allegro.flac" WAVE
TRACK 07 AUDIO
TITLE "Piano Sonata No.13 In B Flat, KV.333 I.Allegro"
PERFORMER "Alfred Brendel"
INDEX 01 00:00:00
FILE "08-Piano Sonata No.13 In B Flat, KV.333 II.Andante cantabile.flac" WAVE
TRACK 08 AUDIO
TITLE "Piano Sonata No.13 In B Flat, KV.333 II.Andante cantabile"
PERFORMER "Alfred Brendel"
ISRC GBBBB9904313
INDEX 01 00:00:00
FILE "09-Piano Sonata No.13 In B Flat, KV.333 III.Allegretto grazioso.flac" WAVE
TRACK 09 AUDIO
TITLE "Piano Sonata No.13 In B Flat, KV.333 III.Allegretto grazioso"
PERFORMER "Alfred Brendel"
ISRC GBBBB9904314
INDEX 01 00:00:00

CD-007: Chamber - a1 - Fantasia in c K475; Piano Sonata in c K457; Variations K455, K460, K500; Rondos K485, K494, K511 (1784-1787) (01:25:18)

01. Trauermarsch in c, KV.453a (02:21)
02. 10 Variations on "Unser dummer Pöbel meint" by C.W.Gluck, in G, KV.455 (14:23)
03. 2 Variations on "Come un agnello" from "Fra i due litiganti" by G.Sarti, in A, KV.460 (03:30)
04. Fantasia in c, KV.475 (12:31)
Piano Sonata No. 14 in c, KV.457
05. I. Molto allegro (08:31)
06. II. Adagio (09:12)
07. III. Allegro assai (04:35)
08. Rondo in D, KV.485 (05:12)
09. Rondo in F, KV.494 (05:29)
10. 12 Variations on an Allegretto in B flat, KV.500 (09:24)
11. Rondo in a, KV.511 (10:09)-[1] Francesco Piemontesi piano
[2] András Schiff piano
[3] Francesco Piemontesi piano
[4-7] Alfred Brendel piano
[8] Mitsuko Uchida piano
[9] Tamar Halperin piano
[10] Ingrid Haebler piano
[11] Vladimir Ashkenazy piano

LOG (CD 7)

Exact Audio Copy V1.1 from 23. June 2015
EAC extraction logfile from 8. November 2016, 22:57
Various / CD-007 - Chamber - a1 - Fantasia in c K475; Piano Sonata in c K457; Variations K455, K460, K500; Rondos K485, K494, K511 (1784–
Used drive : ASUS SDRW-08D2S-U Adapter: 1 ID: 1
Read mode : Secure
Utilize accurate stream : Yes
Defeat audio cache : Yes
Make use of C2 pointers : No
Read offset correction : 6
Overread into Lead-In and Lead-Out : No
Fill up missing offset samples with silence : Yes
Delete leading and trailing silent blocks : No
Null samples used in CRC calculations : Yes
Used interface : Native Win32 interface for Win NT & 2000
Gap handling : Appended to previous track
Used output format : User Defined Encoder
Selected bitrate : 1024 kBit/s
Quality : High
Add ID3 tag : No
Command line compressor : C:\Program Files (x86)\foobar2000\FLAC\flac.exe
Additional command line options : -8 -e -V -T "ARTIST=%artist%" -T "TITLE=%title%" -T "ALBUM=%albumtitle%" -T "DATE=%year%" -T "TRACKNUMBER=%tracknr%" -T "GENRE=%genre%" -T "PERFORMER=%albuminterpret%" -T "COMPOSER=%composer%" %haslyrics%--tag-from-file=LYRICS="%lyricsfile%"%haslyrics% -T "ALBUMARTIST=%albumartist%" -T "DISCNUMBER=%cdnumber%" -T "TOTALDISCS=%totalcds%" -T "TOTALTRACKS=%numtracks%" -T "COMMENT=%comment%" %source% -o %dest%
TOC of the extracted CD
Track | Start | Length | Start sector | End sector
---------------------------------------------------------
1 | 0:00.00 | 2:20.54 | 0 | 10553
2 | 2:20.54 | 14:23.27 | 10554 | 75305
3 | 16:44.06 | 3:29.51 | 75306 | 91031
4 | 20:13.57 | 12:31.31 | 91032 | 147387
5 | 32:45.13 | 8:31.37 | 147388 | 185749
6 | 41:16.50 | 9:12.29 | 185750 | 227178
7 | 50:29.04 | 4:34.47 | 227179 | 247775
8 | 55:03.51 | 5:12.19 | 247776 | 271194
9 | 60:15.70 | 5:29.32 | 271195 | 295901
10 | 65:45.27 | 9:23.47 | 295902 | 338173
11 | 75:08.74 | 10:08.54 | 338174 | 383827
Track 1
Filename C:\Rippy\Mozart_225\CD-007\01 - Trauermarsch in C Minor, K.453a.wav
Pre-gap length 0:00:02.00
Peak level 98.2 %
Extraction speed 0.8 X
Track quality 99.9 %
Test CRC 71F11958
Copy CRC 71F11958
Track not present in AccurateRip database
Copy OK
Track 2
Filename C:\Rippy\Mozart_225\CD-007\02 - 10 Variations in G, K.455 on "Unser dummer Pöbel meint" by C.W. Gluck.wav
Peak level 98.2 %
Extraction speed 1.5 X
Track quality 100.0 %
Test CRC B173455E
Copy CRC B173455E
Track not present in AccurateRip database
Copy OK
Track 3
Filename C:\Rippy\Mozart_225\CD-007\03 - 2 Variations in A Major on “Come un agnello” from Sarti's "Fra I due litiganti", K.460.wav
Peak level 65.2 %
Extraction speed 1.4 X
Track quality 100.0 %
Test CRC C4C5D8FD
Copy CRC C4C5D8FD
Track not present in AccurateRip database
Copy OK
Track 4
Filename C:\Rippy\Mozart_225\CD-007\04 - Fantasia in C Minor, K.475.wav
Peak level 98.2 %
Extraction speed 1.7 X
Track quality 100.0 %
Test CRC ED6ABF58
Copy CRC ED6ABF58
Track not present in AccurateRip database
Copy OK
Track 5
Filename C:\Rippy\Mozart_225\CD-007\05 - Piano Sonata No.14 in C minor, K.457 - 1. Molto allegro.wav
Peak level 98.2 %
Extraction speed 1.8 X
Track quality 100.0 %
Test CRC 81D80291
Copy CRC 81D80291
Track not present in AccurateRip database
Copy OK
Track 6
Filename C:\Rippy\Mozart_225\CD-007\06 - Piano Sonata No.14 in C minor, K.457 - 2. Adagio.wav
Peak level 77.5 %
Extraction speed 1.9 X
Track quality 100.0 %
Test CRC 6FF68695
Copy CRC 6FF68695
Track not present in AccurateRip database
Copy OK
Track 7
Filename C:\Rippy\Mozart_225\CD-007\07 - Piano Sonata No.14 in C minor, K.457 - 3. Allegro assai.wav
Peak level 98.2 %
Extraction speed 1.9 X
Track quality 100.0 %
Test CRC 528E309F
Copy CRC 528E309F
Track not present in AccurateRip database
Copy OK
Track 8
Filename C:\Rippy\Mozart_225\CD-007\08 - Rondo in D Major, K.485.wav
Peak level 83.2 %
Extraction speed 2.0 X
Track quality 100.0 %
Test CRC 31357CF1
Copy CRC 31357CF1
Track not present in AccurateRip database
Copy OK
Track 9
Filename C:\Rippy\Mozart_225\CD-007\09 - Rondo in F K.494.wav
Peak level 94.0 %
Extraction speed 2.0 X
Track quality 100.0 %
Test CRC AC24C1AD
Copy CRC AC24C1AD
Track not present in AccurateRip database
Copy OK
Track 10
Filename C:\Rippy\Mozart_225\CD-007\10 - 12 Variations on an Allegretto in B Flat, K.500.wav
Peak level 88.2 %
Extraction speed 2.2 X
Track quality 100.0 %
Test CRC 9393C99B
Copy CRC 9393C99B
Track not present in AccurateRip database
Copy OK
Track 11
Filename C:\Rippy\Mozart_225\CD-007\11 - Rondo in A Minor, K.511.wav
Peak level 95.8 %
Extraction speed 2.3 X
Track quality 100.0 %
Test CRC C5F30B89
Copy CRC C5F30B89
Track not present in AccurateRip database
Copy OK
None of the tracks are present in the AccurateRip database
No errors occurred
End of status report
---- CUETools DB Plugin V2.1.6
[CTDB TOCID: YbXg0CPD5BdUtVXrxOaduznHVtE-] found
Submit result: already submitted
Track | CTDB Status
1 | (3/3) Accurately ripped
2 | (3/3) Accurately ripped
3 | (3/3) Accurately ripped
4 | (3/3) Accurately ripped
5 | (3/3) Accurately ripped
6 | (3/3) Accurately ripped
7 | (3/3) Accurately ripped
8 | (3/3) Accurately ripped
9 | (3/3) Accurately ripped
10 | (3/3) Accurately ripped
11 | (3/3) Accurately ripped
==== Log checksum 6E04E7E7E914A992129E4956658E632ABBFDB507C84DCFBDC81E305B8501CFAC ====

CUE (CD 7)

REM DATE 2016
REM GENRE Chamber Music
REM DISCID 8913FD0B
REM COMMENT ExactAudioCopy v1.1
CATALOG 0028947897941
PERFORMER "Various Artists"
TITLE "CD-007-Chamber-a1-Fantasia in c KV.475; Piano Sonata in c KV.457; Variations KV.455, KV.460, KV.500; Rondos KV.485, KV.494, KV.511"
FILE "01-Trauermarsch in C Minor, KV.453a.flac" WAVE
TRACK 01 AUDIO
TITLE "Trauermarsch in C Minor, KV.453a"
PERFORMER "Francesco Piemontesi"
ISRC GBF071600240
INDEX 01 00:00:00
FILE "02-10 Variations in G, KV.455 on 'Unser dummer Pobel meint' by C.W. Gluck.flac" WAVE
TRACK 02 AUDIO
TITLE "10 Variations in G, KV.455 on 'Unser dummer Pobel meint' by C.W.Gluck"
PERFORMER "Andras Schiff"
ISRC GBF078611500
INDEX 01 00:00:00
FILE "03-2 Variations in A Major on 'Come un agnello” from Sarti's 'Fra I due litiganti', KV.460.flac" WAVE
TRACK 03 AUDIO
TITLE "2 Variations in A Major on 'Come un agnello” from Sarti's 'Fra I due litiganti', KV.460"
PERFORMER "Francesco Piemontesi"
ISRC GBF071600250
INDEX 01 00:00:00
FILE "04-Fantasia in C Minor, KV.475.flac" WAVE
TRACK 04 AUDIO
TITLE "Fantasia in C Minor, KV.475"
PERFORMER "Alfred Brendel"
ISRC NLA509007101
INDEX 01 00:00:00
FILE "05-Piano Sonata No.14 in C minor, KV.457 I.Molto allegro.flac" WAVE
TRACK 05 AUDIO
TITLE "Piano Sonata No.14 in C minor, KV.457 I.Molto allegro"
PERFORMER "Alfred Brendel"
ISRC GBBBB9904315
INDEX 01 00:00:00
FILE "06-Piano Sonata No.14 in C minor, KV.457 II.Adagio.flac" WAVE
TRACK 06 AUDIO
TITLE "Piano Sonata No.14 in C minor, KV.457 II.Adagio"
PERFORMER "Alfred Brendel"
ISRC GBBBB9904316
INDEX 01 00:00:00
FILE "07-Piano Sonata No.14 in C minor, KV.457 III.Allegro assai.flac" WAVE
TRACK 07 AUDIO
TITLE "Piano Sonata No.14 in C minor, KV.457 III.Allegro assai"
PERFORMER "Alfred Brendel"
ISRC GBBBB9904317
INDEX 01 00:00:00
FILE "08-Rondo in D Major, KV.485.flac" WAVE
TRACK 08 AUDIO
TITLE "Rondo in D Major, KV.485"
PERFORMER "Mitsuko Uchida"
ISRC NLA508542407
INDEX 01 00:00:00
FILE "09-Rondo in F, KV.494.flac" WAVE
TRACK 09 AUDIO
TITLE "Rondo in F, KV.494"
PERFORMER "Tamar Halperin"
ISRC GBF071203880
INDEX 01 00:00:00
FILE "10-12 Variations on an Allegretto in B Flat, KV.500.flac" WAVE
TRACK 10 AUDIO
TITLE "12 Variations on an Allegretto in B Flat, KV.500"
PERFORMER "Ingrid Haebler"
ISRC NLA507506910
INDEX 01 00:00:00
FILE "11-Rondo in A Minor, KV.511.flac" WAVE
TRACK 11 AUDIO
TITLE "Rondo in A Minor, KV.511"
PERFORMER "Vladimir Ashkenazy"
ISRC GBF076710790
INDEX 01 00:00:00

CD-008: Piano Sonatas K.533/494, 545 & 570 etc. (01:24:28)

Piano Sonata No. 15 in F, KV.533/494
01. I. Allegro, KV.533 (07:38)
02. II. Andante, KV.533 (09:32)
03. III. Rondo (Allegretto), KV.494 (06:10)
04. Adagio in b, KV.540 (10:01)
Piano Sonata No. 16 in C, KV.545 "Facile"
05. I. Allegro (04:14)
06. II. Andante (06:03)
07. III. Rondo (Allegretto) (01:41)
Piano Sonata No. 17 in B flat, KV.570
08. I. Allegro (08:39)
09. II. Adagio (08:41)
10. III. Allegretto (03:45)
11. 9 Variations on a minuet by J.P.Duport, in D, KV.573 (13:46)
12. Kleine Gigue in G, KV.574 (01:39)
13. Minuet in D, KV.355 (02:39)-[1-3] Mitsuko Uchida piano
[4] Alfred Brendel piano
[5-10] Maria João Pires piano
[11] Ingrid Haebler piano
[12-13] András Schiff piano

LOG (CD 8)

Exact Audio Copy V1.1 from 23. June 2015
EAC extraction logfile from 8. November 2016, 22:40
Various / CD-008 - Chamber - a1 - Piano Sonatas K533/494, K545, K570; Adagio in b K540; Variations K573 (1788–1789)
Used drive : MATSHITACD-ROM CR-587 Adapter: 1 ID: 0
Read mode : Secure
Utilize accurate stream : Yes
Defeat audio cache : Yes
Make use of C2 pointers : No
Read offset correction : 103
Overread into Lead-In and Lead-Out : No
Fill up missing offset samples with silence : Yes
Delete leading and trailing silent blocks : No
Null samples used in CRC calculations : Yes
Used interface : Native Win32 interface for Win NT & 2000
Gap handling : Appended to previous track
Used output format : User Defined Encoder
Selected bitrate : 1024 kBit/s
Quality : High
Add ID3 tag : No
Command line compressor : C:\Program Files (x86)\foobar2000\FLAC\flac.exe
Additional command line options : -8 -e -V -T "ARTIST=%artist%" -T "TITLE=%title%" -T "ALBUM=%albumtitle%" -T "DATE=%year%" -T "TRACKNUMBER=%tracknr%" -T "GENRE=%genre%" -T "PERFORMER=%albuminterpret%" -T "COMPOSER=%composer%" %haslyrics%--tag-from-file=LYRICS="%lyricsfile%"%haslyrics% -T "ALBUMARTIST=%albumartist%" -T "DISCNUMBER=%cdnumber%" -T "TOTALDISCS=%totalcds%" -T "TOTALTRACKS=%numtracks%" -T "COMMENT=%comment%" %source% -o %dest%
TOC of the extracted CD
Track | Start | Length | Start sector | End sector
---------------------------------------------------------
1 | 0:00.00 | 7:37.54 | 0 | 34328
2 | 7:37.54 | 9:31.72 | 34329 | 77225
3 | 17:09.51 | 6:09.51 | 77226 | 104951
4 | 23:19.27 | 10:01.36 | 104952 | 150062
5 | 33:20.63 | 4:14.17 | 150063 | 169129
6 | 37:35.05 | 6:03.12 | 169130 | 196366
7 | 43:38.17 | 1:41.06 | 196367 | 203947
8 | 45:19.23 | 8:39.02 | 203948 | 242874
9 | 53:58.25 | 8:41.12 | 242875 | 281961
10 | 62:39.37 | 3:45.24 | 281962 | 298860
11 | 66:24.61 | 13:45.39 | 298861 | 360774
12 | 80:10.25 | 1:38.57 | 360775 | 368181
13 | 81:49.07 | 2:38.66 | 368182 | 380097
Track 1
Filename C:\Rippy\Mozart_225\CD-008\01 - Piano Sonata No.15 in F, K.533,494 - 1. Allegro, K.533.wav
Pre-gap length 0:00:02.00
Peak level 84.1 %
Extraction speed 1.6 X
Track quality 100.0 %
Test CRC 48DBF174
Copy CRC 48DBF174
Track not present in AccurateRip database
Copy OK
Track 2
Filename C:\Rippy\Mozart_225\CD-008\02 - Piano Sonata No.15 in F, K.533,494 - 2. Andante, K.533.wav
Pre-gap length 0:00:01.88
Peak level 75.1 %
Extraction speed 1.9 X
Track quality 100.0 %
Test CRC 4EF9A68F
Copy CRC 4EF9A68F
Track not present in AccurateRip database
Copy OK
Track 3
Filename C:\Rippy\Mozart_225\CD-008\03 - Piano Sonata No.15 in F, K.533,494 - 3. Rondo (Allegretto), K.494.wav
Pre-gap length 0:00:02.01
Peak level 71.8 %
Extraction speed 2.1 X
Track quality 100.0 %
Test CRC 31A2512F
Copy CRC 31A2512F
Track not present in AccurateRip database
Copy OK
Track 4
Filename C:\Rippy\Mozart_225\CD-008\04 - Adagio in B minor, K.540.wav
Pre-gap length 0:00:04.60
Peak level 82.3 %
Extraction speed 2.3 X
Track quality 100.0 %
Test CRC CF8EE543
Copy CRC CF8EE543
Track not present in AccurateRip database
Copy OK
Track 5
Filename C:\Rippy\Mozart_225\CD-008\05 - Piano Sonata No.15 in C, K.545 "Facile" - 1. Allegro.wav
Pre-gap length 0:00:03.32
Peak level 83.5 %
Extraction speed 2.3 X
Track quality 100.0 %
Test CRC B6D91DEA
Copy CRC B6D91DEA
Track not present in AccurateRip database
Copy OK
Track 6
Filename C:\Rippy\Mozart_225\CD-008\06 - Piano Sonata No.15 in C, K.545 "Facile" - 2. Andante.wav
Pre-gap length 0:00:01.84
Peak level 55.2 %
Extraction speed 2.5 X
Track quality 100.0 %
Test CRC EFF785F6
Copy CRC EFF785F6
Track not present in AccurateRip database
Copy OK
Track 7
Filename C:\Rippy\Mozart_225\CD-008\07 - Piano Sonata No.15 in C, K.545 "Facile" - 3. Rondo (Allegretto).wav
Peak level 98.0 %
Extraction speed 2.1 X
Track quality 100.0 %
Test CRC A198D43B
Copy CRC A198D43B
Track not present in AccurateRip database
Copy OK
Track 8
Filename C:\Rippy\Mozart_225\CD-008\08 - Piano Sonata No.16 in B flat, K.570 - 1. Allegro.wav
Pre-gap length 0:00:03.64
Peak level 98.8 %
Extraction speed 2.7 X
Track quality 100.0 %
Test CRC F3C26343
Copy CRC F3C26343
Track not present in AccurateRip database
Copy OK
Track 9
Filename C:\Rippy\Mozart_225\CD-008\09 - Piano Sonata No.16 in B flat, K.570 - 2. Adagio.wav
Pre-gap length 0:00:01.24
Peak level 64.3 %
Extraction speed 2.9 X
Track quality 100.0 %
Test CRC C43B3785
Copy CRC C43B3785
Track not present in AccurateRip database
Copy OK
Track 10
Filename C:\Rippy\Mozart_225\CD-008\10 - Piano Sonata No.16 in B flat, K.570 - 3. Allegretto.wav
Peak level 91.9 %
Extraction speed 2.8 X
Track quality 100.0 %
Test CRC 13FD3B53
Copy CRC 13FD3B53
Track not present in AccurateRip database
Copy OK
Track 11
Filename C:\Rippy\Mozart_225\CD-008\11 - 9 Variations in D, K.573 on a minuet by J.P. Duport.wav
Pre-gap length 0:00:03.26
Peak level 93.5 %
Extraction speed 3.3 X
Track quality 100.0 %
Test CRC 8A279BE3
Copy CRC 8A279BE3
Track not present in AccurateRip database
Copy OK
Track 12
Filename C:\Rippy\Mozart_225\CD-008\12 - Kleine Gigue in G, K.574.wav
Pre-gap length 0:00:03.58
Peak level 98.8 %
Extraction speed 2.6 X
Track quality 100.0 %
Test CRC C7C12C3F
Copy CRC C7C12C3F
Track not present in AccurateRip database
Copy OK
Track 13
Filename C:\Rippy\Mozart_225\CD-008\13 - Minuet in D, K.355.wav
Pre-gap length 0:00:00.58
Peak level 83.2 %
Extraction speed 2.9 X
Track quality 100.0 %
Test CRC 1CADD2DB
Copy CRC 1CADD2DB
Track not present in AccurateRip database
Copy OK
None of the tracks are present in the AccurateRip database
No errors occurred
End of status report
---- CUETools DB Plugin V2.1.6
[CTDB TOCID: YV4Juj9OB8AgHV6bdCkztvq0pqY-] found
Submit result: already submitted
Track | CTDB Status
1 | (2/2) Accurately ripped
2 | (2/2) Accurately ripped
3 | (2/2) Accurately ripped
4 | (2/2) Accurately ripped
5 | (2/2) Accurately ripped
6 | (2/2) Accurately ripped
7 | (2/2) Accurately ripped
8 | (2/2) Accurately ripped
9 | (2/2) Accurately ripped
10 | (2/2) Accurately ripped
11 | (2/2) Accurately ripped
12 | (2/2) Accurately ripped
13 | (2/2) Accurately ripped
==== Log checksum ED87B4E4E7116CE4A23278084FF69E89C637FF31FC688EB5EF5C13A734B1E549 ====

CUE (CD 8)

REM DATE 2016
REM GENRE Chamber Music
REM DISCID 9B13CB0D
REM COMMENT ExactAudioCopy v1.1
CATALOG 0028947897958
PERFORMER "Various Artists"
TITLE "CD-008-Chamber-a1-Piano Sonatas, KV.533/494, KV.545, KV.570; Adagio in b, KV.540; Variations, KV.573"
FILE "01-Piano Sonata No.15 in F, KV.533,494 I.Allegro, KV.533.flac" WAVE
TRACK 01 AUDIO
TITLE "Piano Sonata No.15 in F, KV.533,494 I.Allegro, KV.533"
PERFORMER "Mitsuko Uchida"
ISRC NLA508310405
INDEX 01 00:00:00
TRACK 02 AUDIO
TITLE "Piano Sonata No.15 in F, KV.533,494 II.Andante, KV.533"
PERFORMER "Mitsuko Uchida"
ISRC NLA508310406
INDEX 00 07:35:63
FILE "02-Piano Sonata No.15 in F, KV.533,494 II.Andante, KV.533.flac" WAVE
INDEX 01 00:00:00
TRACK 03 AUDIO
TITLE "Piano Sonata No.15 in F, KV.533,494 III.Rondo (Allegretto), KV.494"
PERFORMER "Mitsuko Uchida"
ISRC NLA508310407
INDEX 00 09:29:71
FILE "03-Piano Sonata No.15 in F, KV.533,494 III.Rondo (Allegretto), KV.494.flac" WAVE
INDEX 01 00:00:00
TRACK 04 AUDIO
TITLE "Adagio in B minor, KV.540"
PERFORMER "Alfred Brendel"
ISRC GBBBB9904318
INDEX 00 06:05:06
FILE "04-Adagio in B minor, KV.540.flac" WAVE
INDEX 01 00:00:00
TRACK 05 AUDIO
TITLE "Piano Sonata No.15 in C, KV.545 'Facile' I.Allegro"
PERFORMER "Maria João Pires"
ISRC DEF058902281
INDEX 00 09:58:12
FILE "05-Piano Sonata No.15 in C, KV.545 'Facile' I.Allegro.flac" WAVE
INDEX 01 00:00:00
TRACK 06 AUDIO
TITLE "Piano Sonata No.15 in C, KV.545 'Facile' II.Andante"
PERFORMER "Maria João Pires"
ISRC DEF058902282
INDEX 00 04:12:29
FILE "06-Piano Sonata No.15 in C, KV.545 'Facile' II.Andante.flac" WAVE
INDEX 01 00:00:00
FILE "07-Piano Sonata No.15 in C, KV.545 'Facile' III.Rondo (Allegretto).flac" WAVE
TRACK 07 AUDIO
TITLE "Piano Sonata No.15 in C, KV.545 'Facile' III.Rondo (Allegretto)"
PERFORMER "Maria João Pires"
ISRC DEF058902283
INDEX 01 00:00:00
TRACK 08 AUDIO
TITLE "Piano Sonata No.16 in B flat, KV.570 I.Allegro"
PERFORMER "Maria João Pires"
ISRC DEF059003871
INDEX 00 01:37:33
FILE "08-Piano Sonata No.16 in B flat, KV.570 I.Allegro.flac" WAVE
INDEX 01 00:00:00
TRACK 09 AUDIO
TITLE "Piano Sonata No.16 in B flat, KV.570 II.Adagio"
PERFORMER "Maria João Pires"
ISRC DEF059003872
INDEX 00 08:37:59
FILE "09-Piano Sonata No.16 in B flat, KV.570 II.Adagio.flac" WAVE
INDEX 01 00:00:00
FILE "10-Piano Sonata No.16 in B flat, KV.570 III.Allegretto.flac" WAVE
TRACK 10 AUDIO
TITLE "Piano Sonata No.16 in B flat, KV.570 III.Allegretto"
PERFORMER "Maria João Pires"
ISRC DEF059003873
INDEX 01 00:00:00
TRACK 11 AUDIO
TITLE "9 Variations in D, KV.573 on a minuet by J.P.Duport"
PERFORMER "Ingrid Haebler"
ISRC NLA507506911
INDEX 00 03:42:04
FILE "11-9 Variations in D, KV.573 on a minuet by J.P. Duport.flac" WAVE
INDEX 01 00:00:00
TRACK 12 AUDIO
TITLE "Kleine Gigue in G, KV.574"
PERFORMER "Andras Schiff"
ISRC GBF078611480
INDEX 00 13:41:70
FILE "12-Kleine Gigue in G, KV.574.flac" WAVE
INDEX 01 00:00:00
TRACK 13 AUDIO
TITLE "Minuet in D, KV.355"
PERFORMER "Andras Schiff"
ISRC GBF078611470
INDEX 00 01:38:13
FILE "13-Minuet in D, KV.355.flac" WAVE
INDEX 01 00:00:00
[torrents24.ru].t69867.torrent 
Торрент: Зарегистрирован [ 2019-01-12 07:50 ] · 1C2FA9C1AC33DFEB88B32179E3393B79074542D4

Скачать .torrent

Скачать

846 KB

Статус: проверено
Скачан: 0 раз
Размер: 62,18 GB

Профиль [ЛС]
Показать сообщения:    

Текущее время: 23-Янв 03:51

Часовой пояс: UTC + 3



Вы не можете начинать темы
Вы не можете отвечать на сообщения
Вы не можете редактировать свои сообщения
Вы не можете удалять свои сообщения
Вы не можете голосовать в опросах
Вы не можете прикреплять файлы к сообщениям
Вы можете скачивать файлы