Статистика раздачи
Размер:  8,7 GB   |    Зарегистрирован:  13 дней   |    Скачан:  0 раз

Полного источника не было: Никогда

 
   
 
 

Domino ®

Пол:
Не указан
Стаж:
11 месяцев 14 дней
Сообщений:
718

Власть в ночном городе | Power- Год выпуска: 2018
Страна: США
Жанр: драма, криминал
Продолжительность: ~ 00:55:00
Перевод: Профессиональный (многоголосый закадровый) Amedia--Режиссёр: Сэнфорд Букставер, Майкл Дж. Бассетт, Роб Харди
В ролях: Омари Хардвик, Нэтари Наутон, Джозеф Сикора, Шэйн Джонсон, Лила Лорен, Майкл Рейни мл., Фифти Сент, Ла Ла Энтони, Джерри Феррара и др.-Описание: Продолжение криминальной драмы от исполнительного продюсера Кертиса Джексона, более известного как 50 Cent. Высшее общество не приняло «Призрака», и теперь у него есть лишь один выход - стать крупнейшим наркодельцом в США. Противостояние колумбийского картеля, нью-йоркских гангстеров и ФБР начинается.--
Качество: WEBRip
Формат: AVI
Видео: XVID, 720x400, 25.000 fps, ~2000 kbps avg, ~0.27 bit/pixel
Аудио Rus: AC3, 48.0 KHz, 2 channels, 192 kbps
Субтитры: отсутствуют
Реклама отсутствует
Все раздачи сериала

MediaInfo

General
Complete name : G:\Власть в ночном городе (Сезон 5) Amedia\Power.S05E01.WEBRip.RGzsRutracker.Celta88.avi
Format : AVI
Format/Info : Audio Video Interleave
File size : 853 MiB
Duration : 53 min 29 s
Overall bit rate : 2 230 kb/s
Writing application : VirtualDubMod 1.5.10.2 (build 2540/release)
Writing library : VirtualDubMod build 2540/release
Video
ID : 0
Format : MPEG-4 Visual
Format profile : Advanced Simple@L5
Format settings, BVOP : 1
Format settings, QPel : No
Format settings, GMC : No warppoints
Format settings, Matrix : Default (MPEG)
Codec ID : XVID
Codec ID/Hint : XviD
Duration : 53 min 29 s
Bit rate : 2 029 kb/s
Width : 720 pixels
Height : 400 pixels
Display aspect ratio : 16:9
Frame rate : 25.000 FPS
Color space : YUV
Chroma subsampling : 4:2:0
Bit depth : 8 bits
Scan type : Progressive
Compression mode : Lossy
Bits/(Pixel*Frame) : 0.282
Stream size : 776 MiB (91%)
Writing library : XviD 67
Audio
ID : 1
Format : AC-3
Format/Info : Audio Coding 3
Mode extension : CM (complete main)
Format settings, Endianness : Big
Codec ID : 2000
Duration : 53 min 29 s
Bit rate mode : Constant
Bit rate : 192 kb/s
Channel(s) : 2 channels
Channel positions : Front: L R
Sampling rate : 48.0 kHz
Frame rate : 31.250 FPS (1536 spf)
Bit depth : 16 bits
Compression mode : Lossy
Stream size : 73.5 MiB (9%)
Alignment : Split accross interleaves
Interleave, duration : 40 ms (1.00 video frame)
Interleave, preload duratio : 500 ms

Скриншоты

[torrents24.ru].t69791.torrent 
Торрент: Зарегистрирован [ 2019-01-09 08:35 ] · 473B39D6DFFCA758916AB327BCCCB9078FDDCBCE

Скачать .torrent

Скачать

45 KB

Статус: проверено
Скачан: 0 раз
Размер: 8,7 GB

Профиль [ЛС]
Показать сообщения:    

Текущее время: 23-Янв 03:53

Часовой пояс: UTC + 3



Вы не можете начинать темы
Вы не можете отвечать на сообщения
Вы не можете редактировать свои сообщения
Вы не можете удалять свои сообщения
Вы не можете голосовать в опросах
Вы не можете прикреплять файлы к сообщениям
Вы можете скачивать файлы