Статистика раздачи
Размер:  12 GB   |    Зарегистрирован:  13 дней   |    Скачан:  0 раз

Полного источника не было: Никогда

 
   
 
 

Cyber ®

Пол:
Не указан
Стаж:
11 месяцев 19 дней
Сообщений:
513

Taylor Swift - We Are Never Ever Getting Back Together
Жанр: Bubblegum pop, Dance-pop, Pop-rock
Продолжительность: 00:03:50
Год выпуска: 2012
Качество: Master
Разрешение видео/развертка: 1080p
Контейнер: MOV
Видео кодек: ProRes 4444
Аудио кодек: PCM
Видео: ProRes, 1920x1080 (16:9), 29.970 fps, 445 Mbps
Аудио: PCM, 48.0 KHz, 2 ch, 2 304 Kbps

Отчёт MediaInfo

Общее
Полное имя : E:\VIDEO\Video-Clips\TS\MASTER\Taylor Swift - We Are Never Ever Getting Back Together (Master ProRes 1080p) - 2012.mov
Формат : QuickTime
Формат/Информация : Original Apple specifications
Размер файла : 12,0 Гбайт
Продолжительность : 3 м. 50 с.
Режим общего битрейта : Переменный
Общий поток : 447 Мбит/сек
Дата кодирования : UTC 2012-08-28 08:45:30
Дата пометки : UTC 2012-08-28 08:45:30
Видео
Идентификатор : 1
Формат : ProRes
Версия формата : Version 0
Профиль формата : 4444
Идентификатор кодека : ap4h
Продолжительность : 3 м. 50 с.
Вид битрейта : Переменный
Битрейт : 445 Мбит/сек
Ширина : 1920 пикселей
Высота : 1080 пикселей
Соотношение сторон : 16:9
Режим частоты кадров : Постоянный
Частота кадров : 29,970 (30000/1001) кадров/сек
Цветовое пространство : YUV
Субдискретизация насыщенности : 4:4:4
Тип развёртки : Прогрессивная
Бит/(Пиксели*Кадры) : 7.158
Размер потока : 11,9 Гбайт (99%)
Библиотека кодирования : fmpg
Язык : English
Дата кодирования : UTC 2012-08-28 08:45:30
Дата пометки : UTC 2012-08-28 08:45:30
Основные цвета : BT.709
Характеристики трансфера : BT.709
Коэффициенты матрицы : BT.709
Аудио
Идентификатор : 2
Формат : PCM
Настройки формата : Big / Signed
Идентификатор кодека : lpcm
Продолжительность : 3 м. 50 с.
Вид битрейта : Постоянный
Битрейт : 2304 Кбит/сек
Каналы : 2 канала
Частота : 48,0 КГц
Битовая глубина : 24 бит
Размер потока : 63,3 Мбайт (1%)
Язык : English
Дата кодирования : UTC 2012-08-28 08:45:30
Дата пометки : UTC 2012-08-28 08:45:30
Прочее
Идентификатор : 3
Тип : Time code
Формат : QuickTime TC
Продолжительность : 3 м. 50 с.
Временной код первого кадра : 01:00:00:00
Временной код, чередующийся : Да
Язык : English
Default : Нет
Дата кодирования : UTC 2012-08-28 08:45:31
Дата пометки : UTC 2012-08-28 08:45:31

Скриншоты

На раздаче долго не останусь!
[torrents24.ru].t69781.torrent 
Торрент: Зарегистрирован [ 2019-01-09 08:35 ] · 3B4A89EC30CE144C1C4DE4F35100D1AE709E6E70

Скачать .torrent

Скачать

60 KB

Статус: проверено
Скачан: 0 раз
Размер: 12 GB

Профиль [ЛС]
Показать сообщения:    

Текущее время: 23-Янв 03:52

Часовой пояс: UTC + 3



Вы не можете начинать темы
Вы не можете отвечать на сообщения
Вы не можете редактировать свои сообщения
Вы не можете удалять свои сообщения
Вы не можете голосовать в опросах
Вы не можете прикреплять файлы к сообщениям
Вы можете скачивать файлы