Статистика раздачи
Размер:  6,96 GB   |    Зарегистрирован:  13 дней   |    Скачан:  0 раз

Полного источника не было: Никогда

 
   
 
 

Поля ®

Пол:
Не указан
Стаж:
11 месяцев 14 дней
Сообщений:
564



Annual Hootenanny 2019


Жанр: Blues, Rock, Pop
Продолжительность: 01:57:40
Запись: 12 Dec 2018
Трансляция: 31 dec 2018, 01 Jan 2019
Качество: HDTV
Разрешение видео/развертка: 1080i
Контейнер: TS
Видео кодек: H.264
Аудио кодек: AC3
Видео: MPEG4 Video (H264) 1920x1080 25fps 7 829 kb/s
Аудио 1: Dolby AC3 48000Hz 6ch 384kbps
Аудио 2: MPEG Audio 48000Hz stereo 256kbps

Треклист

Jools Holland & His Rhythm & Blues Orchestra with guests:01. Hot 8 Brass Band : Introduction
02. Jools & His Rhythm & Blues Orchestra : You Done Me Wrong
03. Introduction of all artists
04. George Ezra : Don't Matter Now
05. Donald Trump skit
06. Jools & His Rhythm & Blues Orchestra with Yola : Faraway Look
07. The Record Company : Life To Fix
08. Angelica Bell / Shaun Keaveney / James Acaster : interviews
09. Jools & His Rhythm & Blues Orchestra with Jess Glynne : I'll Be There
10. Hot 8 Brass Band : Get Up
11. Michael Bublé & Jess Glynne : Interviews
12. Rudimental with James Arthur : Sun Comes Up
13. Jools & His Rhythm & Blues Orchestra with Michael Bublé : When You're Smiling
14. Donald Trump skit
15. Jools & His Rhythm & Blues Orchestra with Ruby Turner : Time Is Winding Up
16. Countdown to New Year
17. The Pipes and Drums of the 1st Battalion Scots Guards with Louise Marshall : Auld Lang Syne
18. Jools & His Rhythm & Blues Orchestra with Nile Rodgers & Chic : Good Times
19. George Ezra : Paradise
20. Jools & His Rhythm & Blues Orchestra with Marc Almond : Tainted Love
21. Rudimental with Jess Glynne & Dan Caplen : These Days
22. Jools & His Rhythm & Blues Orchestra with Michael Bublé : Such A Night
23. Ruby Turner / Marc Almond / Nile Rodgers : Interviews
24. Jools & His Rhythm & Blues Orchestra with Junior Giscombe : Mama Used To Say
25. The Record Company : I'm Getting Better (And I'm Feeling It Right Now)
26. Reece Shearsmith & Steve Pemberton : Interviews
27. Jools & His Rhythm & Blues Orchestra with Yola : Slow Train / Long Walk To DC
28. George Ezra : Shotgun
29. Jools & His Rhythm & Blues Orchestra with Nile Rodgers & Chic : Le Freak
30. Junior Giscombe & Michael Bublé : Interviews
31. Hot 8 Brass Band : Love Will Tear Us Apart
32. Jools & His Rhythm & Blues Orchestra with Michael Bublé : I Only Have Eyes For You
33. Alexei Sayle / Siobhan Redmond : Interviews
34. Jools & His Rhythm & Blues Orchestra with Marc Almond : Gipsy Rover
35. Rudimental with Bridgette Amofa : Sweet Love
36. Ferne McCann : Interview
37. Thanks to all artists
38. Jools & His Rhythm & Blues Orchestra with Ruby Turner & guests : Enjoy Yourself (It's Later Than You Think)

Отчёт MediaInfo / BDInfo

General
Unique ID : 254932328398906983045369068586786545933 (0xBFCA2E359D217DBEA9DA48615C1EE10D)
Complete name : F:\Later... with Jools Holland - Annual Hootenanny 2018.mkv
Format : Matroska
Format version : Version 4
File size : 6.96 GiB
Duration : 1 h 57 min
Overall bit rate : 8 472 kb/s
Encoded date : UTC 2019-01-01 09:44:33
Writing application : mkvmerge v7.7.0 ('Six Voices') 32bit built on Feb 28 2015 23:23:00
Writing library : libebml v1.3.1 + libmatroska v1.4.2
Video
ID : 1
Format : AVC
Format/Info : Advanced Video Codec
Format profile : High@L4
Format settings : CABAC / 4 Ref Frames
Format settings, CABAC : Yes
Format settings, ReFrames : 4 frames
Codec ID : V_MPEG4/ISO/AVC
Duration : 1 h 57 min
Bit rate : 7 829 kb/s
Width : 1 920 pixels
Height : 1 080 pixels
Display aspect ratio : 16:9
Frame rate mode : Constant
Frame rate : 25.000 FPS
Standard : Component
Color space : YUV
Chroma subsampling : 4:2:0
Bit depth : 8 bits
Scan type : MBAFF
Scan type, store method : Separated fields
Scan order : Top Field First
Bits/(Pixel*Frame) : 0.151
Stream size : 6.44 GiB (92%)
Language : English
Default : No
Forced : No
Color range : Limited
Color primaries : BT.709
Transfer characteristics : BT.709
Matrix coefficients : BT.709
Audio #1
ID : 2
Format : AC-3
Format/Info : Audio Coding 3
Commercial name : Dolby Digital
Codec ID : A_AC3
Duration : 1 h 57 min
Bit rate mode : Constant
Bit rate : 384 kb/s
Channel(s) : 6 channels
Channel layout : L R C LFE Ls Rs
Sampling rate : 48.0 kHz
Frame rate : 31.250 FPS (1536 SPF)
Bit depth : 16 bits
Compression mode : Lossy
Stream size : 323 MiB (5%)
Language : English
Service kind : Complete Main
Default : Yes
Forced : No
Audio #2
ID : 3
Format : MPEG Audio
Format version : Version 1
Format profile : Layer 2
Codec ID : A_MPEG/L2
Codec ID/Hint : MP2
Duration : 1 h 57 min
Bit rate mode : Constant
Bit rate : 256 kb/s
Channel(s) : 2 channels
Sampling rate : 48.0 kHz
Frame rate : 41.667 FPS (1152 SPF)
Compression mode : Lossy
Stream size : 215 MiB (3%)
Language : English
Default : No
Forced : No
Text
ID : 4
Format : UTF-8
Codec ID : S_TEXT/UTF8
Codec ID/Info : UTF-8 Plain Text
Duration : 1 h 57 min
Bit rate : 77 b/s
Count of elements : 2003
Stream size : 66.2 KiB (0%)
Language : English
Default : No
Forced : No
Menu
00:00:00.000 : en:Hot 8 Brass Band : Introduction
00:00:57.000 : en:Jools & His Rhythm & Blues Orchestra : You Done Me Wrong
00:04:32.000 : en:Introduction of all artists
00:05:55.000 : en:George Ezra : Don't Matter Now
00:09:01.000 : en:Donald Trump skit
00:11:09.000 : en:Jools & His Rhythm & Blues Orchestra with Yola : Faraway Look
00:14:51.000 : en:The Record Company : Life To Fix
00:18:13.000 : en:Angelica Bell / Shaun Keaveney / James Acaster : interviews
00:20:21.000 : en:Jools & His Rhythm & Blues Orchestra with Jess Glynne : I'll Be There
00:24:09.000 : en:Hot 8 Brass Band : Get Up
00:28:36.000 : en:Michael Bublé & Jess Glynne : Interviews
00:30:32.000 : en:Rudimental with James Arthur : Sun Comes Up
00:34:35.000 : en:Jools & His Rhythm & Blues Orchestra with Michael Bublé : When You're Smiling
00:37:56.000 : en:Donald Trump skit
00:39:33.000 : en:Jools & His Rhythm & Blues Orchestra with Ruby Turner : Time Is Winding Up
00:43:04.000 : en:Countdown to New Year
00:43:49.000 : en:The Pipes and Drums of the 1st Battalion Scots Guards with Louise Marshall : Auld Lang Syne
00:46:43.000 : en:Jools & His Rhythm & Blues Orchestra with Nile Rodgers & Chic : Good Times
00:52:03.000 : en:George Ezra : Paradise
00:56:06.000 : en:Jools & His Rhythm & Blues Orchestra with Marc Almond : Tainted Love
00:59:07.000 : en:Rudimental with Jess Glynne & Dan Caplen : These Days
01:03:39.000 : en:Jools & His Rhythm & Blues Orchestra with Michael Bublé : Such A Night
01:07:12.000 : en:Ruby Turner / Marc Almond / Nile Rodgers : Interviews
01:08:50.000 : en:Jools & His Rhythm & Blues Orchestra with Junior Giscombe : Mama Used To Say
01:13:12.000 : en:The Record Company : I'm Getting Better (And I'm Feeling It Right Now)
01:18:05.000 : en:Reece Shearsmith & Steve Pemberton : Interviews
01:19:50.000 : en:Jools & His Rhythm & Blues Orchestra with Yola : Slow Train / Long Walk To DC
01:24:27.000 : en:George Ezra : Shotgun
01:28:07.000 : en:Jools & His Rhythm & Blues Orchestra with Nile Rodgers & Chic : Le Freak
01:33:41.000 : en:Junior Giscombe & Michael Bublé : Interviews
01:35:27.000 : en:Hot 8 Brass Band : Love Will Tear Us Apart
01:39:47.000 : en:Jools & His Rhythm & Blues Orchestra with Michael Bublé : I Only Have Eyes For You
01:43:40.000 : en:Alexei Sayle / Siobhan Redmond : Interviews
01:45:32.000 : en:Jools & His Rhythm & Blues Orchestra with Marc Almond : Gipsy Rover
01:48:36.000 : en:Rudimental with Bridgette Amofa : Sweet Love
01:52:17.000 : en:Ferne McCann : Interview
01:53:00.000 : en:Thanks to all artists
01:53:45.000 : en:Jools & His Rhythm & Blues Orchestra with Ruby Turner & guests : Enjoy Yourself (It's Later Than You Think)
[torrents24.ru].t69759.torrent 
Торрент: Зарегистрирован [ 2019-01-09 08:35 ] · 2C9C57E03412DE4D9B5EB704888E6ADDBC572F5B

Скачать .torrent

Скачать

18 KB

Статус: проверено
Скачан: 0 раз
Размер: 6,96 GB

Профиль [ЛС]
Показать сообщения:    

Текущее время: 23-Янв 03:56

Часовой пояс: UTC + 3



Вы не можете начинать темы
Вы не можете отвечать на сообщения
Вы не можете редактировать свои сообщения
Вы не можете удалять свои сообщения
Вы не можете голосовать в опросах
Вы не можете прикреплять файлы к сообщениям
Вы можете скачивать файлы