Статистика раздачи
Размер:  8,41 GB   |    Зарегистрирован:  13 дней   |    Скачан:  0 раз

Полного источника не было: Никогда

 
   
 
 

Dream ®

Пол:
Не указан
Стаж:
11 месяцев 18 дней
Сообщений:
814


Золушка

2018


Жанр: Musical
Продолжительность: 01:41:43
Год выпуска: 2018
Качество: HDTV
Разрешение видео/развертка: 1080i
Контейнер: TS
Видео кодек: H.264
Аудио кодек: MP2
Видео: MPEG4 Video (H264) 1920x1080 25fps 11.1 Mb/s
Аудио: MPEG Audio 48000Hz stereo 192kbps

Участники

Режиссер: Александр Игудин
Золушка – Наталья Медведева
Принц – Сергей Лазарев
Король – Юрий Гальцев
Церемониймейстер – Филипп Киркоров
Главная фрейлина – Анна Ковальчук
Золотой голос королевства – Николай Басков
Мачеха – Елена Степаненко
Отец Золушки – Борис Смолкин
Дочери мачехи – Анна Семенович и Анастасия Стоцкая
Фея – Елена Воробей
Начальник стражи – Михаил Боярский
В остальных ролях: Кристина Орбакайте, Юрий Аскаров, Игорь Верник, Ефим Шифрин, Егор Крид, Андрей Малахов, братья Пономаренко, Сосо Павлиашвили, Владимир Данилец, Владимир Моисеенко

Отчёт MediaInfo / BDInfo

General
ID : 1 (0x1)
Complete name : E:\Золушка 2018.ts
Format : MPEG-TS
File size : 8.41 GiB
Duration : 1 h 41 min
Overall bit rate mode : Variable
Overall bit rate : 11.8 Mb/s
Video
ID : 256 (0x100)
Menu ID : 1 (0x1)
Format : AVC
Format/Info : Advanced Video Codec
Format profile : High@L4
Format settings : CABAC / 4 Ref Frames
Format settings, CABAC : Yes
Format settings, ReFrames : 4 frames
Codec ID : 27
Duration : 1 h 41 min
Bit rate : 11.1 Mb/s
Width : 1 920 pixels
Height : 1 080 pixels
Display aspect ratio : 16:9
Frame rate : 25.000 FPS
Standard : Component
Color space : YUV
Chroma subsampling : 4:2:0
Bit depth : 8 bits
Scan type : Interlaced
Scan type, store method : Separated fields
Scan order : Top Field First
Bits/(Pixel*Frame) : 0.213
Stream size : 7.85 GiB (93%)
Color range : Limited
Color primaries : BT.709
Transfer characteristics : BT.709
Matrix coefficients : BT.709
Audio
ID : 257 (0x101)
Menu ID : 1 (0x1)
Format : MPEG Audio
Format version : Version 1
Format profile : Layer 2
Codec ID : 3
Duration : 1 h 41 min
Bit rate mode : Constant
Bit rate : 192 kb/s
Channel(s) : 2 channels
Sampling rate : 48.0 kHz
Frame rate : 41.667 FPS (1152 SPF)
Compression mode : Lossy
Stream size : 140 MiB (2%)
Language : Russian
[torrents24.ru].t69746.torrent 
Торрент: Зарегистрирован [ 2019-01-09 08:35 ] · C0299F955A85AF4798D6F41EADC944DE3DD4435F

Скачать .torrent

Скачать

21 KB

Статус: проверено
Скачан: 0 раз
Размер: 8,41 GB

Профиль [ЛС]
Показать сообщения:    

Текущее время: 23-Янв 04:26

Часовой пояс: UTC + 3



Вы не можете начинать темы
Вы не можете отвечать на сообщения
Вы не можете редактировать свои сообщения
Вы не можете удалять свои сообщения
Вы не можете голосовать в опросах
Вы не можете прикреплять файлы к сообщениям
Вы можете скачивать файлы