Статистика раздачи
Размер:  16,39 GB   |    Зарегистрирован:  13 дней   |    Скачан:  0 раз

Полного источника не было: Никогда

 
   
 
 

RussianGirl ®

Пол:
Не указан
Стаж:
11 месяцев 14 дней
Сообщений:
1298

Директор / The principal
Страна: США
Студия: TriStar Pictures
Жанр: драма, триллер
Год выпуска: 1987
Продолжительность: 01:50:17
Перевод: Профессиональный (дублированный) - Варус Видео
Перевод 2: Профессиональный (многоголосый закадровый) - R5 (iTunes Russia)
Перевод 3: Профессиональный (многоголосый закадровый) - 1 канал
Перевод 4: Профессиональный (двухголосый закадровый) - Русский Дубляж по заказу СТС
Перевод 5: Профессиональный (двухголосый закадровый) - Видеосервис
Перевод 6: Авторский (одноголосый закадровый) - Андрей Гаврилов
Перевод 7: Авторский (одноголосый закадровый) - Вячеслав Котов
Перевод 8: Одноголосый закадровый - Немец (с кассеты)
Субтитры: русские, английские
Оригинальная аудиодорожка: английский
Режиссер: Кристофер Кэйн / Christopher Cain
В ролях: Джеймс Белуши, Луис Госсетт мл., Рей Дон Чонг, Майкл Райт, Дж. Дж. Коэн, Эсай Моралес, Трой Уинбуш, Джейкоб Варгас, Томас Райан, Реджи Джонсон, Келли Джо Минтер, Рут Бекфорд, Джулиан Брукс, Джоан Вальдеррама, Рик Хэмилтон, Мартин Пистон, Ричард Дюпелл, Питер Фицсиммонс, Джо Флуд, Аннабел Армор, Тони Хейни, Шэрон Томас, Дэниэл Ройал, Делорес Митчелл, Золтан Грэй, Джон Вик, Шон Майкл Аллен, Юрий Лэйн, Стив Биргер, Гас Димас, Лео Дауни, Том Уинстон, Кэтрин Ноттс, Маршалл Джонс, Вуд Джош, Марк Энгер, Фрэнк Диз, Дж. Дж. Джонстон, Даг Уайт, Уот Такешита, Эллиотт С. Вальдеррама, Джоэль Валентин, Джессика Луни, Каприс Уилсон, Бриджитт Родригез, Том Брайант, Дэнни Ковач, Чармэйн Андерсон, Терри Коулмэн, Мелисса Ли Холломан, Луис Зуно, Немон Уэйд, Эурал Уиллс, Джеймс Эдвард Гриффин, Дэвид Уильямс, Мелани Дж. Мутерс, Линда Троубридж, Дэнни Уильямс, Билл Ярбро, Лито Уилсон
Роли дублировали: Андрей Ташков, Владимир Герасимов, Наталья Вихрова, Александр Новиков, Сергей Балабанов, Вадим Курков, Александр Рыжков, Елена Астафьева, Елена Борзунова
Роли озвучивали (СТС): Виктор Петров, Светлана Старикова
Роли озвучивали (Видеосервис): Владимир Вихров, Наталья Казначеева
Описание: Рик разъезжает на лихом мотоцикле и разгуливает с бейсбольной битой. Но он — не бандит и не трудный подросток. Рик — новый директор школы, самой худшей в районе, да и в мире, пожалуй. Вместо литературы и математики ученики увлечены драками и наркотиками.
Только сумасшедший рискнет изменить существующий порядок. Однако Рик — талантливый учитель. Вместо указки он берет свою любимую биту. Кто сказал, что бить учеников не педагогично?
Доп. информация: Рип найден в сети и сделан с этого исходника - http://rutracker.org/forum/viewtopic.php?t=5667099.
Сэмпл: https://cloud.mail.ru/public/7aDS/tfLP9nhN8
Тип релиза: BDRip 1080p
Контейнер: MKV
Видео: 14299 Кбит/сек, AVC 1920*1040 (1,85:1), 23,976 кадра/сек, CABAC
Аудио: Русский, 192 Кбит/сек, 48,0 КГц, 16 бит, 2 канала, AC-3 - Варус
Аудио 2: Русский, 192 Кбит/сек, 48,0 КГц, 16 бит, 2 канала, AC-3 - R5
Аудио 3: Русский, 192 Кбит/сек, 48,0 КГц, 16 бит, 2 канала, AC-3 - 1 канал
Аудио 4: Русский, 192 Кбит/сек, 48,0 КГц, 16 бит, 2 канала, AC-3 - СТС
Аудио 5: Русский, 1509 Кбит/сек, 48,0 КГц, 24 бит, 2 канала, DTS - Видеосервис
Аудио 6: Русский, 1509 Кбит/сек, 48,0 КГц, 24 бит, 2 канала, DTS - Гаврилов
Аудио 7: Русский, 1509 Кбит/сек, 48,0 КГц, 24 бит, 2 канала, DTS - Котов
Аудио 8: Русский, 192 Кбит/сек, 48,0 КГц, 16 бит, 2 канала, AC-3 - Немец
Аудио 9: Английский, 1509 Кбит/сек, 48,0 КГц, 24 бит, 2 канала, DTS
Формат субтитров: softsub (SRT)

MediaInfo

Общее
Уникальный идентификатор : 25408975600333875554877754537471522037 (0x131D9737E2951BF9F75D9CB6064234F5)
Полное имя : U:\MONAR\Художественные фильмы\Зарубежное кино\Директор (1987) BDRip 1080p.mkv
Формат : Matroska
Версия формата : Version 4
Размер файла : 16,4 Гбайт
Продолжительность : 1 ч. 50 м.
Общий поток : 21,3 Мбит/сек
Название фильма : The principal (1987)
Дата кодирования : UTC 2018-12-30 15:35:18
Программа кодирования : mkvmerge v29.0.0 ('Like It Or Not') 64-bit
Библиотека кодирования : libebml v1.3.6 + libmatroska v1.4.9
Обложка : Yes
Attachments : cover.jpg
Видео
Идентификатор : 1
Формат : AVC
Формат/Информация : Advanced Video Codec
Профиль формата : High@L4.1
Настройки формата : CABAC / 4 Ref Frames
Параметр CABAC формата : Да
Параметр RefFrames формата : 4 кадра
Идентификатор кодека : V_MPEG4/ISO/AVC
Продолжительность : 1 ч. 50 м.
Битрейт : 14,3 Мбит/сек
Ширина : 1920 пикселей
Высота : 1040 пикселей
Соотношение сторон : 1,85:1
Режим частоты кадров : Переменный
Частота кадров : 23,945 кадра/сек
Частота кадров в оригинале : 23,976 (24000/1001) кадра/сек
Цветовое пространство : YUV
Субдискретизация насыщенности : 4:2:0
Битовая глубина : 8 бит
Тип развёртки : Прогрессивная
Бит/(Пиксели*Кадры) : 0.299
Размер потока : 11,0 Гбайт (67%)
Библиотека кодирования : x264 core 152 r2851kMod ba24899
Настройки программы : cabac=1 / ref=4 / deblock=1:-3:-3 / analyse=0x3:0x133 / me=umh / subme=10 / psy=1 / fade_compensate=0.00 / psy_rd=1.03:0.00 / mixed_ref=1 / me_range=32 / chroma_me=1 / trellis=2 / 8x8dct=1 / cqm=0 / deadzone=21,11 / fast_pskip=0 / chroma_qp_offset=-2 / threads=6 / lookahead_threads=1 / sliced_threads=0 / nr=0 / decimate=1 / interlaced=0 / bluray_compat=0 / constrained_intra=0 / bframes=8 / b_pyramid=2 / b_adapt=2 / b_bias=0 / direct=3 / weightb=1 / open_gop=0 / weightp=2 / keyint=250 / keyint_min=23 / scenecut=40 / intra_refresh=0 / rc=2pass / mbtree=0 / bitrate=14300 / ratetol=1.0 / qcomp=0.60 / qpmin=0 / qpmax=69 / qpstep=4 / cplxblur=20.0 / qblur=0.5 / ip_ratio=1.30 / pb_ratio=1.20 / aq=1:0.70
Язык : English
Default : Да
Forced : Нет
Цветовой диапазон : Limited
Коэффициенты матрицы : BT.709
Аудио #1
Идентификатор : 2
Формат : AC-3
Формат/Информация : Audio Coding 3
Коммерческое название : Dolby Digital
Идентификатор кодека : A_AC3
Продолжительность : 1 ч. 50 м.
Вид битрейта : Постоянный
Битрейт : 192 Кбит/сек
Каналы : 2 канала
Channel layout : L R
Частота : 48,0 КГц
Частота кадров : 31,250 кадров/сек (1536 SPF)
Битовая глубина : 16 бит
Метод сжатия : С потерями
Размер потока : 151 Мбайт (1%)
Заголовок : Dub
Язык : Russian
ServiceKind/String : Complete Main
Default : Да
Forced : Нет
Аудио #2
Идентификатор : 3
Формат : AC-3
Формат/Информация : Audio Coding 3
Коммерческое название : Dolby Digital
Идентификатор кодека : A_AC3
Продолжительность : 1 ч. 50 м.
Вид битрейта : Постоянный
Битрейт : 192 Кбит/сек
Каналы : 2 канала
Channel layout : L R
Частота : 48,0 КГц
Частота кадров : 31,250 кадров/сек (1536 SPF)
Битовая глубина : 16 бит
Метод сжатия : С потерями
Размер потока : 151 Мбайт (1%)
Заголовок : MVO (R5)
Язык : Russian
ServiceKind/String : Complete Main
Default : Нет
Forced : Нет
Аудио #3
Идентификатор : 4
Формат : AC-3
Формат/Информация : Audio Coding 3
Коммерческое название : Dolby Digital
Идентификатор кодека : A_AC3
Продолжительность : 1 ч. 50 м.
Вид битрейта : Постоянный
Битрейт : 192 Кбит/сек
Каналы : 2 канала
Channel layout : L R
Частота : 48,0 КГц
Частота кадров : 31,250 кадров/сек (1536 SPF)
Битовая глубина : 16 бит
Метод сжатия : С потерями
Размер потока : 151 Мбайт (1%)
Заголовок : MVO (1 канал)
Язык : Russian
ServiceKind/String : Complete Main
Default : Нет
Forced : Нет
Аудио #4
Идентификатор : 5
Формат : AC-3
Формат/Информация : Audio Coding 3
Коммерческое название : Dolby Digital
Идентификатор кодека : A_AC3
Продолжительность : 1 ч. 50 м.
Вид битрейта : Постоянный
Битрейт : 192 Кбит/сек
Каналы : 2 канала
Channel layout : L R
Частота : 48,0 КГц
Частота кадров : 31,250 кадров/сек (1536 SPF)
Битовая глубина : 16 бит
Метод сжатия : С потерями
Размер потока : 151 Мбайт (1%)
Заголовок : DVO (Russkij Dublyag)
Язык : Russian
ServiceKind/String : Complete Main
Default : Нет
Forced : Нет
Аудио #5
Идентификатор : 6
Формат : DTS
Формат/Информация : Digital Theater Systems
Идентификатор кодека : A_DTS
Продолжительность : 1 ч. 50 м.
Вид битрейта : Постоянный
Битрейт : 1509 Кбит/сек
Каналы : 2 канала
Channel layout : L R
Частота : 48,0 КГц
Частота кадров : 93,750 кадра/сек (512 SPF)
Битовая глубина : 24 бит
Метод сжатия : С потерями
Размер потока : 1,16 Гбайт (7%)
Заголовок : DVO (ВVideoservis)
Язык : Russian
Default : Нет
Forced : Нет
Аудио #6
Идентификатор : 7
Формат : DTS
Формат/Информация : Digital Theater Systems
Идентификатор кодека : A_DTS
Продолжительность : 1 ч. 50 м.
Вид битрейта : Постоянный
Битрейт : 1509 Кбит/сек
Каналы : 2 канала
Channel layout : L R
Частота : 48,0 КГц
Частота кадров : 93,750 кадра/сек (512 SPF)
Битовая глубина : 24 бит
Метод сжатия : С потерями
Размер потока : 1,16 Гбайт (7%)
Заголовок : AVO (Gavrilov)
Язык : Russian
Default : Нет
Forced : Нет
Аудио #7
Идентификатор : 8
Формат : DTS
Формат/Информация : Digital Theater Systems
Идентификатор кодека : A_DTS
Продолжительность : 1 ч. 50 м.
Вид битрейта : Постоянный
Битрейт : 1509 Кбит/сек
Каналы : 2 канала
Channel layout : L R
Частота : 48,0 КГц
Частота кадров : 93,750 кадра/сек (512 SPF)
Битовая глубина : 24 бит
Метод сжатия : С потерями
Размер потока : 1,16 Гбайт (7%)
Заголовок : AVO (Kotov)
Язык : Russian
Default : Нет
Forced : Нет
Аудио #8
Идентификатор : 9
Формат : AC-3
Формат/Информация : Audio Coding 3
Коммерческое название : Dolby Digital
Идентификатор кодека : A_AC3
Продолжительность : 1 ч. 50 м.
Вид битрейта : Постоянный
Битрейт : 192 Кбит/сек
Каналы : 2 канала
Channel layout : L R
Частота : 48,0 КГц
Частота кадров : 31,250 кадров/сек (1536 SPF)
Битовая глубина : 16 бит
Метод сжатия : С потерями
Размер потока : 151 Мбайт (1%)
Заголовок : VO (Nemets)
Язык : Russian
ServiceKind/String : Complete Main
Default : Нет
Forced : Нет
Аудио #9
Идентификатор : 10
Формат : DTS
Формат/Информация : Digital Theater Systems
Идентификатор кодека : A_DTS
Продолжительность : 1 ч. 50 м.
Вид битрейта : Постоянный
Битрейт : 1509 Кбит/сек
Каналы : 2 канала
Channel layout : L R
Частота : 48,0 КГц
Частота кадров : 93,750 кадра/сек (512 SPF)
Битовая глубина : 24 бит
Метод сжатия : С потерями
Размер потока : 1,16 Гбайт (7%)
Заголовок : original
Язык : English
Default : Нет
Forced : Нет
Текст #1
Идентификатор : 11
Формат : UTF-8
Идентификатор кодека : S_TEXT/UTF8
Идентификатор кодека/Информация : UTF-8 Plain Text
Продолжительность : 1 ч. 45 м.
Битрейт : 70 бит/сек
ElementCount : 1017
Размер потока : 54,2 Кбайт (0%)
Заголовок : srt
Язык : Russian
Default : Нет
Forced : Нет
Текст #2
Идентификатор : 12
Формат : UTF-8
Идентификатор кодека : S_TEXT/UTF8
Идентификатор кодека/Информация : UTF-8 Plain Text
Продолжительность : 1 ч. 49 м.
Битрейт : 48 бит/сек
ElementCount : 1368
Размер потока : 38,9 Кбайт (0%)
Заголовок : srt
Язык : English
Default : Нет
Forced : Нет
Текст #3
Идентификатор : 13
Формат : UTF-8
Идентификатор кодека : S_TEXT/UTF8
Идентификатор кодека/Информация : UTF-8 Plain Text
Продолжительность : 1 ч. 49 м.
Битрейт : 51 бит/сек
ElementCount : 1493
Размер потока : 41,6 Кбайт (0%)
Заголовок : SDH
Язык : English
Default : Нет
Forced : Нет
Меню
00:00:00.000 : :00:00:00.000
00:10:00.600 : :00:10:00.600
00:20:01.200 : :00:20:01.200
00:30:01.798 : :00:30:01.798
00:40:02.400 : :00:40:02.400
00:50:03.000 : :00:50:03.000
01:00:03.599 : :01:00:03.599
01:10:04.198 : :01:10:04.198
01:20:04.800 : :01:20:04.800
01:30:05.399 : :01:30:05.399
01:40:06.000 : :01:40:06.000

Скриншоты

[torrents24.ru].t69727.torrent 
Торрент: Зарегистрирован [ 2019-01-09 08:35 ] · DD4310377E7266BCD429EE06BEB543FBD839EFC0

Скачать .torrent

Скачать

41 KB

Статус: проверено
Скачан: 0 раз
Размер: 16,39 GB

Профиль [ЛС]
Показать сообщения:    

Текущее время: 23-Янв 04:09

Часовой пояс: UTC + 3



Вы не можете начинать темы
Вы не можете отвечать на сообщения
Вы не можете редактировать свои сообщения
Вы не можете удалять свои сообщения
Вы не можете голосовать в опросах
Вы не можете прикреплять файлы к сообщениям
Вы можете скачивать файлы