Статистика раздачи
Размер:  4,78 GB   |    Зарегистрирован:  14 дней   |    Скачан:  0 раз

Полного источника не было: Никогда

 
   
 
 

maria ®

Пол:
Не указан
Стаж:
11 месяцев 15 дней
Сообщений:
438

Синяя птица 5 сезон 05 выпуск от 2018.12.09
Дата/Год выпуска: 2018
Страна: Россия
Жанр: ТВ-шоу
Продолжительность: 01:01:00
Перевод: Не требуется
Телеканал: Россия 1 HD
Описание: Юные музыканты, певцы, танцоры, гимнасты, акробаты в возрасте от 5 до 15 лет примут участие в новом всероссийском конкурсе "Синяя птица"!
Впервые детский творческий конкурс объединяет самые разнообразные номинации: оперный вокал и эстрадный, хореографию и цирковое искусство, классику и современность.
С "Синей птицей" сбываются мечты!
Ведущия: Дарья Златопольская
Жюри: народные артисты России скрипачка и дирижер Светлана Безродная; ректор хореографического училища им. Вагановой, премьер Большого Театра Николай Цискаридзе; исполнитель русских романсов, певец Олег Погудин.
Источник: Собственная запись
Качество: HDTV 1080i
Контейнер: TS
Видео кодек: H.264
Аудио кодек: MP2
Видео: H264; 1920x1080 (16:9); 25.000 fps; ~10.4 Mb/s
Аудио : MPEG Audio Version 1 Layer 2, 48000Hz, 2 channels stereo 192 Кбит/сек

MediaInfo

General
ID : 1 (0x1)
Complete name : F:\Behold TV 222\Синяя птица 5 сезон 05 выпуск от 2018.12.09.ts
Format : MPEG-TS
File size : 4.78 GiB
Duration : 1 h 1 min
Overall bit rate mode : Variable
Overall bit rate : 11.1 Mb/s
Video
ID : 2292 (0x8F4)
Menu ID : 2291 (0x8F3)
Format : AVC
Format/Info : Advanced Video Codec
Format profile : Main@L4
Format settings : CABAC / 4 Ref Frames
Format settings, CABAC : Yes
Format settings, ReFrames : 4 frames
Codec ID : 27
Duration : 1 h 1 min
Bit rate : 10.4 Mb/s
Width : 1 920 pixels
Height : 1 080 pixels
Display aspect ratio : 16:9
Frame rate : 25.000 FPS
Standard : Component
Color space : YUV
Chroma subsampling : 4:2:0
Bit depth : 8 bits
Scan type : Interlaced
Scan type, store method : Separated fields
Scan order : Top Field First
Bits/(Pixel*Frame) : 0.200
Stream size : 4.46 GiB (93%)
Color range : Limited
Color primaries : BT.709
Transfer characteristics : BT.709
Matrix coefficients : BT.709
Audio
ID : 2295 (0x8F7)
Menu ID : 2291 (0x8F3)
Format : MPEG Audio
Format version : Version 1
Format profile : Layer 2
Codec ID : 3
Duration : 1 h 1 min
Bit rate mode : Constant
Bit rate : 192 kb/s
Channel(s) : 2 channels
Sampling rate : 48.0 kHz
Frame rate : 41.667 FPS (1152 SPF)
Compression mode : Lossy
Stream size : 84.5 MiB (2%)
Language : English

Скриншоты



[torrents24.ru].t69615.torrent 
Торрент: Зарегистрирован [ 2019-01-08 16:40 ] · 3B8CC3DB5121BCC72726899D6A089484CA9886E8

Скачать .torrent

Скачать

12 KB

Статус: проверено
Скачан: 0 раз
Размер: 4,78 GB

Профиль [ЛС]
Показать сообщения:    

Текущее время: 23-Янв 03:50

Часовой пояс: UTC + 3



Вы не можете начинать темы
Вы не можете отвечать на сообщения
Вы не можете редактировать свои сообщения
Вы не можете удалять свои сообщения
Вы не можете голосовать в опросах
Вы не можете прикреплять файлы к сообщениям
Вы можете скачивать файлы