Статистика раздачи
Размер:  74 MB   |    Зарегистрирован:  14 дней   |    Скачан:  0 раз

Полного источника не было: Никогда

 
   
 
 

NINJA ®

Пол:
Не указан
Стаж:
11 месяцев 18 дней
Сообщений:
670

Пожар в Картонном Городе / Fire in Cardboard City
Страна: Новая Зеландия
Жанр: мультфильм-катастрофа, комедия
Продолжительность: 00:08:46
Год выпуска: 2017
Перевод: cубтитры
Русские субтитры: есть
Режиссёр: Фил Браф / Phil Brough
Роли озвучивали: Ли Харт, Элла Уилкс, Анна Холл и др.
Описание:
Мультфильм про пожар в городе из гофрокартона. В главных ролях - гофрокартонный капитан пожарной бригады, его гофрокартонные помощники и гофрокартонные блокбастерные клише (навроде персонажа, в замедленной съёмке убегающего от взрыва за спиной).
Доп. информация:
Короткометражный дебют новозеландского режиссёра Фила Брафа был тепло встречен публикой и критиками - в частности, демонстрировался в кинотеатрах России в рамках Манхэттенского кинофестиваля 2018 года. Это компьютерная анимация, но слегка стилизованная под кукольную. Для оживления героев использовался дешёвый вариант захвата движения (motion capture). Небольшие роли исполнили сам Фил Браф и его дети.
Судя по отсутствию артикля, "Картонный Город" - это имя собственное, поэтому по-русски должно писаться с большими буквами.
Качество: WEBRip
Формат: MP4
Видео: H264, 640x360 (16:9), 23.976 fps, 1096 kbps
Аудио: AAC, 48.0 kHz, 2 ch, 87.3 kbps
Субтитры: русские, английские (srt)

Подробные технические данные

General
Complete name : Fire in Cardboard City.mp4
Format : MPEG-4
Format profile : Base Media
Codec ID : isom (isom/avc1/mp42)
File size : 74.4 MiB
Duration : 8 min 46 s
Overall bit rate mode : Variable
Overall bit rate : 1 186 kb/s
Encoded date : UTC 2018-07-02 14:20:27
Tagged date : UTC 2018-07-02 14:20:27
Video
ID : 1
Format : AVC
Format/Info : Advanced Video Codec
Format profile : Baseline@L3
Format settings : 4 Ref Frames
Format settings, CABAC : No
Format settings, ReFrames : 4 frames
Codec ID : avc1
Codec ID/Info : Advanced Video Coding
Duration : 8 min 46 s
Bit rate : 1 096 kb/s
Maximum bit rate : 3 026 kb/s
Width : 640 pixels
Height : 360 pixels
Display aspect ratio : 16:9
Frame rate mode : Constant
Frame rate : 23.976 (24000/1001) FPS
Color space : YUV
Chroma subsampling : 4:2:0
Bit depth : 8 bits
Scan type : Progressive
Bits/(Pixel*Frame) : 0.198
Stream size : 68.8 MiB (92%)
Writing library : Zencoder Video Encoding System
Encoded date : UTC 2018-07-02 14:18:06
Tagged date : UTC 2018-07-02 14:20:27
Color range : Limited
Color primaries : BT.709
Transfer characteristics : BT.709
Matrix coefficients : BT.709
Codec configuration box : avcC
Audio
ID : 2
Format : AAC LC
Format/Info : Advanced Audio Codec Low Complexity
Codec ID : mp4a-40-2
Duration : 8 min 46 s
Bit rate mode : Variable
Bit rate : 87.3 kb/s
Maximum bit rate : 108 kb/s
Channel(s) : 2 channels
Channel layout : L R
Sampling rate : 48.0 kHz
Frame rate : 46.875 FPS (1024 SPF)
Compression mode : Lossy
Stream size : 5.48 MiB (7%)
Encoded date : UTC 2018-07-02 14:18:06
Tagged date : UTC 2018-07-02 14:20:27

Скриншоты

[torrents24.ru].t69614.torrent 
Торрент: Зарегистрирован [ 2019-01-08 16:40 ] · 55FDEF197D10814CAB10177BFB5AFF50B0BCDB40

Скачать .torrent

Скачать

12 KB

Статус: проверено
Скачан: 0 раз
Размер: 74 MB

Профиль [ЛС]
Показать сообщения:    

Текущее время: 23-Янв 03:51

Часовой пояс: UTC + 3



Вы не можете начинать темы
Вы не можете отвечать на сообщения
Вы не можете редактировать свои сообщения
Вы не можете удалять свои сообщения
Вы не можете голосовать в опросах
Вы не можете прикреплять файлы к сообщениям
Вы можете скачивать файлы