Статистика раздачи
Размер:  4,61 GB   |    Зарегистрирован:  15 дней   |    Скачан:  0 раз

Полного источника не было: Никогда

 
   
 
 

Dima ®

Пол:
Мужской
Стаж:
11 месяцев 15 дней
Сообщений:
991

Ana Gabriel - En La Plaza De Toros de Mexico (Live)
Страна: USA
Жанр: Pop/Ballad/Ranchero Latin
Продолжительность: 01:24:46
Год выпуска: 2007
Лейбл: Sony BMG Music Entertainment US Latin
Описание: En la Plaza de Toros México is the 14th album by Mexican pop singer, Ana Gabriel, and her second live. It was released on 1998. This is a compilation of self-penned previous rancheras and pop material. Gabriel also pays tribute to the quintessential ranchera composer José Alfredo Jiménez and Juan Gabriel
Треклист:
01. Danza De Angeles
02. Pecado Original
03. Esta Noche
04. Destino
05. Solo Fantasía
06. Evidencias
07. Ráyando el Sol
08. Un Viejo Amor
09. Valentín De La Sierra
10. Me Equivoqué Contigo
11. Con Un Mismo Corazón
12. Popurrí Ranchero
* Ahora
* No Entiendo
* Sin Problemas
* Es Demasiado Tarde

13. A Pesar De Todos
14. Popurrí Tradicional
* México Lindo y Querido
* Cielito Lindo

15. En La Oscuridad
16. Cosas Del Amor (Feat. Analy)
17. No Sabes
18. ¿Quién Como Tú?
19. Simplemente Amigos
20. Hice Bien Quererte (Lambada)
Разбивка на главы по трекам: есть
Качество : DVD9
Формат: DVD video
Видео кодек: MPEG2
Аудио кодек: AC3
Видео: NTSC 4:3 (720x480) VBR
Аудио: Unspecified (Dolby AC3, 2 ch) 448 kbps

DVDinfo

General
Complete name : C:\Ana Gabriel - Plaza Toros Mexico\VIDEO_TS\VIDEO_TS.BUP
Format : DVD Video
Format profile : Menu
File size : 16.0 KiB
Overall bit rate mode : Variable
FileExtension_Invalid : ifo
Video
ID : 224 (0xE0)
Format : MPEG Video
Format version : Version 2
Bit rate mode : Variable
Width : 720 pixels
Height : 480 pixels
Display aspect ratio : 4:3
Frame rate : 29.970 (29970/1000) FPS
Standard : NTSC
Compression mode : Lossy
Text
Format : RLE
Format/Info : Run-length encoding
Bit depth : 2 bits
General
Complete name : C:\Ana Gabriel - Plaza Toros Mexico\VIDEO_TS\VIDEO_TS.IFO
Format : DVD Video
Format profile : Menu
File size : 16.0 KiB
Overall bit rate mode : Variable
Video
ID : 224 (0xE0)
Format : MPEG Video
Format version : Version 2
Bit rate mode : Variable
Width : 720 pixels
Height : 480 pixels
Display aspect ratio : 4:3
Frame rate : 29.970 (29970/1000) FPS
Standard : NTSC
Compression mode : Lossy
Text
Format : RLE
Format/Info : Run-length encoding
Bit depth : 2 bits
General
Complete name : C:\Ana Gabriel - Plaza Toros Mexico\VIDEO_TS\VIDEO_TS.VOB
Format : MPEG-PS
File size : 114 KiB
Duration : 467 ms
Overall bit rate : 2 000 kb/s
Video
ID : 224 (0xE0)
Format : MPEG Video
Format version : Version 2
Format profile : Main@Main
Format settings : CustomMatrix / BVOP
Format settings, BVOP : Yes
Format settings, Matrix : Custom
Format settings, picture structure : Frame
Duration : 467 ms
Bit rate mode : Constant
Maximum bit rate : 2 000 kb/s
Width : 720 pixels
Height : 480 pixels
Display aspect ratio : 4:3
Frame rate : 29.970 (30000/1001) FPS
Standard : NTSC
Color space : YUV
Chroma subsampling : 4:2:0
Bit depth : 8 bits
Scan type : Interlaced
Scan order : Top Field First
Compression mode : Lossy
Time code of first frame : 00:00:00:01
Time code source : Group of pictures header
Text
ID : 189 (0xBD)-32 (0x20)
Format : RLE
Format/Info : Run-length encoding
Muxing mode : DVD-Video
Menu
General
Complete name : C:\Ana Gabriel - Plaza Toros Mexico\VIDEO_TS\VTS_01_0.BUP
Format : DVD Video
Format profile : Program
File size : 26.0 KiB
Duration : 15 s 0 ms
Overall bit rate mode : Variable
Overall bit rate : 14.2 kb/s
FileExtension_Invalid : ifo
Video
ID : 224 (0xE0)
Format : MPEG Video
Format version : Version 2
Duration : 15 s 15 ms
Bit rate mode : Variable
Width : 720 pixels
Height : 480 pixels
Display aspect ratio : 4:3
Frame rate : 29.970 (29970/1000) FPS
Standard : NTSC
Compression mode : Lossy
Menu
Duration : 15 s 0 ms
00:00:00.000 : Chapter 1
General
Complete name : C:\Ana Gabriel - Plaza Toros Mexico\VIDEO_TS\VTS_01_0.IFO
Format : DVD Video
Format profile : Program
File size : 26.0 KiB
Duration : 15 s 0 ms
Overall bit rate mode : Variable
Overall bit rate : 14.2 kb/s
Video
ID : 224 (0xE0)
Format : MPEG Video
Format version : Version 2
Duration : 15 s 15 ms
Bit rate mode : Variable
Width : 720 pixels
Height : 480 pixels
Display aspect ratio : 4:3
Frame rate : 29.970 (29970/1000) FPS
Standard : NTSC
Compression mode : Lossy
Menu
Duration : 15 s 0 ms
00:00:00.000 : Chapter 1
General
Complete name : C:\Ana Gabriel - Plaza Toros Mexico\VIDEO_TS\VTS_01_0.VOB
Format : MPEG-PS
File size : 77.8 MiB
Duration : 5 s 239 ms
Overall bit rate mode : Variable
Overall bit rate : 124 Mb/s
Video
ID : 224 (0xE0)
Format : MPEG Video
Format version : Version 2
Format profile : Main@Main
Format settings : CustomMatrix / BVOP
Format settings, BVOP : Yes
Format settings, Matrix : Custom
Format settings, GOP : Variable
Format settings, picture structure : Frame
Duration : 5 s 239 ms
Bit rate mode : Variable
Bit rate : 122 Mb/s
Maximum bit rate : 8 200 kb/s
Width : 720 pixels
Height : 480 pixels
Display aspect ratio : 4:3
Frame rate : 29.970 (30000/1001) FPS
Standard : NTSC
Color space : YUV
Chroma subsampling : 4:2:0
Bit depth : 8 bits
Scan type : Interlaced
Scan order : Bottom Field First
Compression mode : Lossy
Bits/(Pixel*Frame) : 11.737
Time code of first frame : 00:00:00;00
Time code source : Group of pictures header
GOP, Open/Closed : Closed
Stream size : 75.9 MiB (98%)
Color primaries : BT.601 NTSC
Transfer characteristics : BT.601
Matrix coefficients : BT.601
Audio
ID : 189 (0xBD)-128 (0x80)
Format : AC-3
Format/Info : Audio Coding 3
Commercial name : Dolby Digital
Muxing mode : DVD-Video
Duration : 5 s 239 ms
Bit rate mode : Constant
Bit rate : 448 kb/s
Channel(s) : 2 channels
Channel layout : L R
Sampling rate : 48.0 kHz
Frame rate : 31.250 FPS (1536 SPF)
Bit depth : 16 bits
Compression mode : Lossy
Stream size : 287 KiB (0%)
Service kind : Complete Main
Text
ID : 189 (0xBD)-32 (0x20)
Format : RLE
Format/Info : Run-length encoding
Muxing mode : DVD-Video
Duration : 5 s 205 ms
Menu
General
Complete name : C:\Ana Gabriel - Plaza Toros Mexico\VIDEO_TS\VTS_01_1.VOB
Format : MPEG-PS
File size : 4.49 MiB
Duration : 15 s 15 ms
Overall bit rate mode : Variable
Overall bit rate : 2 508 kb/s
Video
ID : 224 (0xE0)
Format : MPEG Video
Format version : Version 2
Format profile : Main@Main
Format settings : CustomMatrix / BVOP
Format settings, BVOP : Yes
Format settings, Matrix : Custom
Format settings, GOP : M=3, N=15
Format settings, picture structure : Frame
Duration : 15 s 15 ms
Bit rate mode : Variable
Bit rate : 2 458 kb/s
Maximum bit rate : 8 000 kb/s
Width : 720 pixels
Height : 480 pixels
Display aspect ratio : 4:3
Frame rate : 29.970 (30000/1001) FPS
Standard : NTSC
Color space : YUV
Chroma subsampling : 4:2:0
Bit depth : 8 bits
Scan type : Interlaced
Scan order : Top Field First
Compression mode : Lossy
Bits/(Pixel*Frame) : 0.237
Time code of first frame : 00:59:59;00
Time code source : Group of pictures header
GOP, Open/Closed : Closed
Stream size : 4.40 MiB (98%)
Color primaries : BT.601 NTSC
Transfer characteristics : BT.601
Matrix coefficients : BT.601
Menu
General
Complete name : C:\Ana Gabriel - Plaza Toros Mexico\VIDEO_TS\VTS_02_0.BUP
Format : DVD Video
Format profile : Program
File size : 18.0 KiB
Duration : 10 s 33 ms
Overall bit rate mode : Variable
Overall bit rate : 14.7 kb/s
FileExtension_Invalid : ifo
Video
ID : 224 (0xE0)
Format : MPEG Video
Format version : Version 2
Duration : 10 s 43 ms
Bit rate mode : Variable
Width : 720 pixels
Height : 480 pixels
Display aspect ratio : 4:3
Frame rate : 29.970 (29970/1000) FPS
Standard : NTSC
Compression mode : Lossy
Menu
Duration : 10 s 33 ms
00:00:00.000 : Chapter 1
General
Complete name : C:\Ana Gabriel - Plaza Toros Mexico\VIDEO_TS\VTS_02_0.IFO
Format : DVD Video
Format profile : Program
File size : 18.0 KiB
Duration : 10 s 33 ms
Overall bit rate mode : Variable
Overall bit rate : 14.7 kb/s
Video
ID : 224 (0xE0)
Format : MPEG Video
Format version : Version 2
Duration : 10 s 43 ms
Bit rate mode : Variable
Width : 720 pixels
Height : 480 pixels
Display aspect ratio : 4:3
Frame rate : 29.970 (29970/1000) FPS
Standard : NTSC
Compression mode : Lossy
Menu
Duration : 10 s 33 ms
00:00:00.000 : Chapter 1
General
Complete name : C:\Ana Gabriel - Plaza Toros Mexico\VIDEO_TS\VTS_02_0.VOB
Format : MPEG-PS
File size : 114 KiB
Duration : 467 ms
Overall bit rate : 2 000 kb/s
Video
ID : 224 (0xE0)
Format : MPEG Video
Format version : Version 2
Format profile : Main@Main
Format settings : CustomMatrix / BVOP
Format settings, BVOP : Yes
Format settings, Matrix : Custom
Format settings, picture structure : Frame
Duration : 467 ms
Bit rate mode : Constant
Maximum bit rate : 2 000 kb/s
Width : 720 pixels
Height : 480 pixels
Display aspect ratio : 4:3
Frame rate : 29.970 (30000/1001) FPS
Standard : NTSC
Color space : YUV
Chroma subsampling : 4:2:0
Bit depth : 8 bits
Scan type : Interlaced
Scan order : Top Field First
Compression mode : Lossy
Time code of first frame : 00:00:00:01
Time code source : Group of pictures header
Text
ID : 189 (0xBD)-32 (0x20)
Format : RLE
Format/Info : Run-length encoding
Muxing mode : DVD-Video
Menu
General
Complete name : C:\Ana Gabriel - Plaza Toros Mexico\VIDEO_TS\VTS_02_1.VOB
Format : MPEG-PS
File size : 6.49 MiB
Duration : 10 s 43 ms
Overall bit rate mode : Variable
Overall bit rate : 5 418 kb/s
Video
ID : 224 (0xE0)
Format : MPEG Video
Format version : Version 2
Format profile : Main@Main
Format settings : CustomMatrix / BVOP
Format settings, BVOP : Yes
Format settings, Matrix : Custom
Format settings, GOP : M=3, N=15
Format settings, picture structure : Frame
Duration : 10 s 43 ms
Bit rate mode : Variable
Bit rate : 5 310 kb/s
Maximum bit rate : 8 200 kb/s
Width : 720 pixels
Height : 480 pixels
Display aspect ratio : 4:3
Frame rate : 29.970 (30000/1001) FPS
Standard : NTSC
Color space : YUV
Chroma subsampling : 4:2:0
Bit depth : 8 bits
Scan type : Interlaced
Scan order : Bottom Field First
Compression mode : Lossy
Bits/(Pixel*Frame) : 0.513
Time code of first frame : 00:59:59;00
Time code source : Group of pictures header
GOP, Open/Closed : Closed
Stream size : 6.36 MiB (98%)
Color primaries : BT.601 NTSC
Transfer characteristics : BT.601
Matrix coefficients : BT.601
Menu
General
Complete name : C:\Ana Gabriel - Plaza Toros Mexico\VIDEO_TS\VTS_03_0.BUP
Format : DVD Video
Format profile : Program
File size : 18.0 KiB
Duration : 7 s 0 ms
Overall bit rate mode : Variable
Overall bit rate : 21.1 kb/s
FileExtension_Invalid : ifo
Video
ID : 224 (0xE0)
Format : MPEG Video
Format version : Version 2
Duration : 7 s 7 ms
Bit rate mode : Variable
Bit rate : 13.3 kb/s
Width : 720 pixels
Height : 480 pixels
Display aspect ratio : 4:3
Frame rate : 29.970 (29970/1000) FPS
Standard : NTSC
Compression mode : Lossy
Bits/(Pixel*Frame) : 0.001
Stream size : 11.4 KiB (63%)
Menu
Duration : 7 s 0 ms
00:00:00.000 : Chapter 1
General
Complete name : C:\Ana Gabriel - Plaza Toros Mexico\VIDEO_TS\VTS_03_0.IFO
Format : DVD Video
Format profile : Program
File size : 18.0 KiB
Duration : 7 s 0 ms
Overall bit rate mode : Variable
Overall bit rate : 21.1 kb/s
Video
ID : 224 (0xE0)
Format : MPEG Video
Format version : Version 2
Duration : 7 s 7 ms
Bit rate mode : Variable
Bit rate : 13.3 kb/s
Width : 720 pixels
Height : 480 pixels
Display aspect ratio : 4:3
Frame rate : 29.970 (29970/1000) FPS
Standard : NTSC
Compression mode : Lossy
Bits/(Pixel*Frame) : 0.001
Stream size : 11.4 KiB (63%)
Menu
Duration : 7 s 0 ms
00:00:00.000 : Chapter 1
General
Complete name : C:\Ana Gabriel - Plaza Toros Mexico\VIDEO_TS\VTS_03_0.VOB
Format : MPEG-PS
File size : 114 KiB
Duration : 467 ms
Overall bit rate : 2 000 kb/s
Video
ID : 224 (0xE0)
Format : MPEG Video
Format version : Version 2
Format profile : Main@Main
Format settings : CustomMatrix / BVOP
Format settings, BVOP : Yes
Format settings, Matrix : Custom
Format settings, picture structure : Frame
Duration : 467 ms
Bit rate mode : Constant
Maximum bit rate : 2 000 kb/s
Width : 720 pixels
Height : 480 pixels
Display aspect ratio : 4:3
Frame rate : 29.970 (30000/1001) FPS
Standard : NTSC
Color space : YUV
Chroma subsampling : 4:2:0
Bit depth : 8 bits
Scan type : Interlaced
Scan order : Top Field First
Compression mode : Lossy
Time code of first frame : 00:00:00:01
Time code source : Group of pictures header
Text
ID : 189 (0xBD)-32 (0x20)
Format : RLE
Format/Info : Run-length encoding
Muxing mode : DVD-Video
Menu
General
Complete name : C:\Ana Gabriel - Plaza Toros Mexico\VIDEO_TS\VTS_03_1.VOB
Format : MPEG-PS
File size : 5.37 MiB
Duration : 7 s 7 ms
Overall bit rate mode : Variable
Overall bit rate : 6 428 kb/s
Video
ID : 224 (0xE0)
Format : MPEG Video
Format version : Version 2
Format profile : Main@Main
Format settings : CustomMatrix / BVOP
Format settings, BVOP : Yes
Format settings, Matrix : Custom
Format settings, GOP : M=3, N=15
Format settings, picture structure : Frame
Duration : 7 s 7 ms
Bit rate mode : Variable
Bit rate : 6 300 kb/s
Maximum bit rate : 8 200 kb/s
Width : 720 pixels
Height : 480 pixels
Display aspect ratio : 4:3
Frame rate : 29.970 (30000/1001) FPS
Standard : NTSC
Color space : YUV
Chroma subsampling : 4:2:0
Bit depth : 8 bits
Scan type : Interlaced
Scan order : Bottom Field First
Compression mode : Lossy
Bits/(Pixel*Frame) : 0.608
Time code of first frame : 00:59:59;00
Time code source : Group of pictures header
GOP, Open/Closed : Closed
Stream size : 5.26 MiB (98%)
Color primaries : BT.601 NTSC
Transfer characteristics : BT.601
Matrix coefficients : BT.601
Menu
General
Complete name : C:\Ana Gabriel - Plaza Toros Mexico\VIDEO_TS\VTS_04_0.BUP
Format : DVD Video
Format profile : Program
File size : 64.0 KiB
Duration : 1 h 24 min
Overall bit rate mode : Variable
Overall bit rate : 103 b/s
FileExtension_Invalid : ifo
Video
ID : 224 (0xE0)
Format : MPEG Video
Format version : Version 2
Duration : 1 h 24 min
Bit rate mode : Variable
Width : 720 pixels
Height : 480 pixels
Display aspect ratio : 4:3
Frame rate : 29.970 (29970/1000) FPS
Standard : NTSC
Compression mode : Lossy
Audio
ID : 128 (0x80)
Format : AC-3
Format/Info : Audio Coding 3
Duration : 1 h 24 min
Channel(s) : 2 channels
Sampling rate : 48.0 kHz
Compression mode : Lossy
Menu
Duration : 1 h 24 min
00:00:00.000 : Chapter 1
00:01:58.633 : Chapter 2
00:05:26.866 : Chapter 3
00:08:49.532 : Chapter 4
00:12:49.665 : Chapter 5
00:18:35.898 : Chapter 6
00:22:50.531 : Chapter 7
00:26:11.297 : Chapter 8
00:29:31.097 : Chapter 9
00:32:53.963 : Chapter 10
00:35:50.929 : Chapter 11
00:39:35.729 : Chapter 12
00:41:16.295 : Chapter 13
00:43:20.595 : Chapter 14
00:45:35.728 : Chapter 15
00:48:01.661 : Chapter 16
00:51:50.427 : Chapter 17
00:55:16.493 : Chapter 18
00:57:43.026 : Chapter 19
01:01:09.526 : Chapter 20
01:02:38.259 : Chapter 21
01:06:31.225 : Chapter 22
01:09:56.525 : Chapter 23
01:13:29.225 : Chapter 24
01:18:57.258 : Chapter 25
01:23:28.691 : Chapter 26
List (Audio) : 0
General
Complete name : C:\Ana Gabriel - Plaza Toros Mexico\VIDEO_TS\VTS_04_0.IFO
Format : DVD Video
Format profile : Program
File size : 64.0 KiB
Duration : 1 h 24 min
Overall bit rate mode : Variable
Overall bit rate : 103 b/s
Video
ID : 224 (0xE0)
Format : MPEG Video
Format version : Version 2
Duration : 1 h 24 min
Bit rate mode : Variable
Width : 720 pixels
Height : 480 pixels
Display aspect ratio : 4:3
Frame rate : 29.970 (29970/1000) FPS
Standard : NTSC
Compression mode : Lossy
Audio
ID : 128 (0x80)
Format : AC-3
Format/Info : Audio Coding 3
Duration : 1 h 24 min
Channel(s) : 2 channels
Sampling rate : 48.0 kHz
Compression mode : Lossy
Menu
Duration : 1 h 24 min
00:00:00.000 : Chapter 1
00:01:58.633 : Chapter 2
00:05:26.866 : Chapter 3
00:08:49.532 : Chapter 4
00:12:49.665 : Chapter 5
00:18:35.898 : Chapter 6
00:22:50.531 : Chapter 7
00:26:11.297 : Chapter 8
00:29:31.097 : Chapter 9
00:32:53.963 : Chapter 10
00:35:50.929 : Chapter 11
00:39:35.729 : Chapter 12
00:41:16.295 : Chapter 13
00:43:20.595 : Chapter 14
00:45:35.728 : Chapter 15
00:48:01.661 : Chapter 16
00:51:50.427 : Chapter 17
00:55:16.493 : Chapter 18
00:57:43.026 : Chapter 19
01:01:09.526 : Chapter 20
01:02:38.259 : Chapter 21
01:06:31.225 : Chapter 22
01:09:56.525 : Chapter 23
01:13:29.225 : Chapter 24
01:18:57.258 : Chapter 25
01:23:28.691 : Chapter 26
List (Audio) : 0
General
Complete name : C:\Ana Gabriel - Plaza Toros Mexico\VIDEO_TS\VTS_04_0.VOB
Format : MPEG-PS
File size : 114 KiB
Duration : 467 ms
Overall bit rate : 2 000 kb/s
Video
ID : 224 (0xE0)
Format : MPEG Video
Format version : Version 2
Format profile : Main@Main
Format settings : CustomMatrix / BVOP
Format settings, BVOP : Yes
Format settings, Matrix : Custom
Format settings, picture structure : Frame
Duration : 467 ms
Bit rate mode : Constant
Maximum bit rate : 2 000 kb/s
Width : 720 pixels
Height : 480 pixels
Display aspect ratio : 4:3
Frame rate : 29.970 (30000/1001) FPS
Standard : NTSC
Color space : YUV
Chroma subsampling : 4:2:0
Bit depth : 8 bits
Scan type : Interlaced
Scan order : Top Field First
Compression mode : Lossy
Time code of first frame : 00:00:00:01
Time code source : Group of pictures header
Text
ID : 189 (0xBD)-32 (0x20)
Format : RLE
Format/Info : Run-length encoding
Muxing mode : DVD-Video
Menu
General
Complete name : C:\Ana Gabriel - Plaza Toros Mexico\VIDEO_TS\VTS_04_1.VOB
Format : MPEG-PS
File size : 1 024 MiB
Duration : 18 min 51 s
Overall bit rate mode : Variable
Overall bit rate : 7 587 kb/s
Video
ID : 224 (0xE0)
Format : MPEG Video
Format version : Version 2
Format profile : Main@Main
Format settings : CustomMatrix / BVOP
Format settings, BVOP : Yes
Format settings, Matrix : Custom
Format settings, GOP : M=3, N=15
Format settings, picture structure : Frame
Duration : 18 min 51 s
Bit rate mode : Variable
Bit rate : 6 988 kb/s
Maximum bit rate : 8 200 kb/s
Width : 720 pixels
Height : 480 pixels
Display aspect ratio : 4:3
Frame rate : 29.970 (30000/1001) FPS
Standard : NTSC
Color space : YUV
Chroma subsampling : 4:2:0
Bit depth : 8 bits
Scan type : Interlaced
Scan order : Bottom Field First
Compression mode : Lossy
Bits/(Pixel*Frame) : 0.675
Time code of first frame : 00:59:59;00
Time code source : Group of pictures header
GOP, Open/Closed : Closed
Stream size : 943 MiB (92%)
Color primaries : BT.601 NTSC
Transfer characteristics : BT.601
Matrix coefficients : BT.601
Audio
ID : 189 (0xBD)-128 (0x80)
Format : AC-3
Format/Info : Audio Coding 3
Commercial name : Dolby Digital
Muxing mode : DVD-Video
Duration : 18 min 51 s
Bit rate mode : Constant
Bit rate : 448 kb/s
Channel(s) : 2 channels
Channel layout : L R
Sampling rate : 48.0 kHz
Frame rate : 31.250 FPS (1536 SPF)
Bit depth : 16 bits
Compression mode : Lossy
Stream size : 60.4 MiB (6%)
Service kind : Complete Main
Menu
General
Complete name : C:\Ana Gabriel - Plaza Toros Mexico\VIDEO_TS\VTS_04_2.VOB
Format : MPEG-PS
File size : 1 024 MiB
Duration : 19 min 6 s
Overall bit rate mode : Variable
Overall bit rate : 7 493 kb/s
Video
ID : 224 (0xE0)
Format : MPEG Video
Format version : Version 2
Format profile : Main@Main
Format settings : CustomMatrix / BVOP
Format settings, BVOP : Yes
Format settings, Matrix : Custom
Format settings, GOP : M=3, N=15
Format settings, picture structure : Frame
Duration : 19 min 6 s
Bit rate mode : Variable
Bit rate : 6 896 kb/s
Maximum bit rate : 8 200 kb/s
Width : 720 pixels
Height : 480 pixels
Display aspect ratio : 4:3
Frame rate : 29.970 (30000/1001) FPS
Standard : NTSC
Color space : YUV
Chroma subsampling : 4:2:0
Bit depth : 8 bits
Scan type : Interlaced
Scan order : Bottom Field First
Compression mode : Lossy
Bits/(Pixel*Frame) : 0.666
Time code of first frame : 01:18:51;01
Time code source : Group of pictures header
GOP, Open/Closed : Closed
Stream size : 942 MiB (92%)
Color primaries : BT.601 NTSC
Transfer characteristics : BT.601
Matrix coefficients : BT.601
Audio
ID : 189 (0xBD)-128 (0x80)
Format : AC-3
Format/Info : Audio Coding 3
Commercial name : Dolby Digital
Muxing mode : DVD-Video
Duration : 19 min 6 s
Bit rate mode : Constant
Bit rate : 448 kb/s
Channel(s) : 2 channels
Channel layout : L R
Sampling rate : 48.0 kHz
Frame rate : 31.250 FPS (1536 SPF)
Bit depth : 16 bits
Compression mode : Lossy
Delay relative to video : -383 ms
Stream size : 61.2 MiB (6%)
Service kind : Complete Main
Menu
General
Complete name : C:\Ana Gabriel - Plaza Toros Mexico\VIDEO_TS\VTS_04_3.VOB
Format : MPEG-PS
File size : 1 024 MiB
Duration : 18 min 31 s
Overall bit rate mode : Variable
Overall bit rate : 7 724 kb/s
Video
ID : 224 (0xE0)
Format : MPEG Video
Format version : Version 2
Format profile : Main@Main
Format settings : CustomMatrix / BVOP
Format settings, BVOP : Yes
Format settings, Matrix : Custom
Format settings, GOP : M=3, N=15
Format settings, picture structure : Frame
Duration : 18 min 31 s
Bit rate mode : Variable
Bit rate : 7 122 kb/s
Maximum bit rate : 8 200 kb/s
Width : 720 pixels
Height : 480 pixels
Display aspect ratio : 4:3
Frame rate : 29.970 (30000/1001) FPS
Standard : NTSC
Color space : YUV
Chroma subsampling : 4:2:0
Bit depth : 8 bits
Scan type : Interlaced
Scan order : Bottom Field First
Compression mode : Lossy
Bits/(Pixel*Frame) : 0.688
Time code of first frame : 01:37:57;06
Time code source : Group of pictures header
GOP, Open/Closed : Closed
Stream size : 944 MiB (92%)
Color primaries : BT.601 NTSC
Transfer characteristics : BT.601
Matrix coefficients : BT.601
Audio
ID : 189 (0xBD)-128 (0x80)
Format : AC-3
Format/Info : Audio Coding 3
Commercial name : Dolby Digital
Muxing mode : DVD-Video
Duration : 18 min 31 s
Bit rate mode : Constant
Bit rate : 448 kb/s
Channel(s) : 2 channels
Channel layout : L R
Sampling rate : 48.0 kHz
Frame rate : 31.250 FPS (1536 SPF)
Bit depth : 16 bits
Compression mode : Lossy
Delay relative to video : -321 ms
Stream size : 59.4 MiB (6%)
Service kind : Complete Main
Menu
General
Complete name : C:\Ana Gabriel - Plaza Toros Mexico\VIDEO_TS\VTS_04_4.VOB
Format : MPEG-PS
File size : 1 024 MiB
Duration : 18 min 47 s
Overall bit rate mode : Variable
Overall bit rate : 7 615 kb/s
Video
ID : 224 (0xE0)
Format : MPEG Video
Format version : Version 2
Format profile : Main@Main
Format settings : CustomMatrix / BVOP
Format settings, BVOP : Yes
Format settings, Matrix : Custom
Format settings, GOP : M=3, N=15
Format settings, picture structure : Frame
Duration : 18 min 47 s
Bit rate mode : Variable
Bit rate : 7 015 kb/s
Maximum bit rate : 8 200 kb/s
Width : 720 pixels
Height : 480 pixels
Display aspect ratio : 4:3
Frame rate : 29.970 (30000/1001) FPS
Standard : NTSC
Color space : YUV
Chroma subsampling : 4:2:0
Bit depth : 8 bits
Scan type : Interlaced
Scan order : Bottom Field First
Compression mode : Lossy
Bits/(Pixel*Frame) : 0.677
Time code of first frame : 01:56:29;12
Time code source : Group of pictures header
GOP, Open/Closed : Closed
Stream size : 943 MiB (92%)
Color primaries : BT.601 NTSC
Transfer characteristics : BT.601
Matrix coefficients : BT.601
Audio
ID : 189 (0xBD)-128 (0x80)
Format : AC-3
Format/Info : Audio Coding 3
Commercial name : Dolby Digital
Muxing mode : DVD-Video
Duration : 18 min 47 s
Bit rate mode : Constant
Bit rate : 448 kb/s
Channel(s) : 2 channels
Channel layout : L R
Sampling rate : 48.0 kHz
Frame rate : 31.250 FPS (1536 SPF)
Bit depth : 16 bits
Compression mode : Lossy
Delay relative to video : -531 ms
Stream size : 60.2 MiB (6%)
Service kind : Complete Main
Menu
General
Complete name : C:\Ana Gabriel - Plaza Toros Mexico\VIDEO_TS\VTS_04_5.VOB
Format : MPEG-PS
File size : 501 MiB
Duration : 9 min 33 s
Overall bit rate mode : Variable
Overall bit rate : 7 321 kb/s
Video
ID : 224 (0xE0)
Format : MPEG Video
Format version : Version 2
Format profile : Main@Main
Format settings : CustomMatrix / BVOP
Format settings, BVOP : Yes
Format settings, Matrix : Custom
Format settings, GOP : M=3, N=15
Format settings, picture structure : Frame
Duration : 9 min 33 s
Bit rate mode : Variable
Bit rate : 6 727 kb/s
Maximum bit rate : 8 200 kb/s
Width : 720 pixels
Height : 480 pixels
Display aspect ratio : 4:3
Frame rate : 29.970 (30000/1001) FPS
Standard : NTSC
Color space : YUV
Chroma subsampling : 4:2:0
Bit depth : 8 bits
Scan type : Interlaced
Scan order : Bottom Field First
Compression mode : Lossy
Bits/(Pixel*Frame) : 0.649
Time code of first frame : 02:15:17;08
Time code source : Group of pictures header
GOP, Open/Closed : Closed
Stream size : 460 MiB (92%)
Color primaries : BT.601 NTSC
Transfer characteristics : BT.601
Matrix coefficients : BT.601
Audio
ID : 189 (0xBD)-128 (0x80)
Format : AC-3
Format/Info : Audio Coding 3
Commercial name : Dolby Digital
Muxing mode : DVD-Video
Duration : 9 min 33 s
Bit rate mode : Constant
Bit rate : 448 kb/s
Channel(s) : 2 channels
Channel layout : L R
Sampling rate : 48.0 kHz
Frame rate : 31.250 FPS (1536 SPF)
Bit depth : 16 bits
Compression mode : Lossy
Delay relative to video : -487 ms
Stream size : 30.7 MiB (6%)
Service kind : Complete Main

Скриншоты меню



Скриншоты



Covers



[torrents24.ru].t69497.torrent 
Торрент: Зарегистрирован [ 2019-01-07 15:55 ] · 9270049A72EBB068FFCEB57B85402F9FB78F4654

Скачать .torrent

Скачать

13 KB

Статус: проверено
Скачан: 0 раз
Размер: 4,61 GB

Профиль [ЛС]
Показать сообщения:    

Текущее время: 23-Янв 03:35

Часовой пояс: UTC + 3



Вы не можете начинать темы
Вы не можете отвечать на сообщения
Вы не можете редактировать свои сообщения
Вы не можете удалять свои сообщения
Вы не можете голосовать в опросах
Вы не можете прикреплять файлы к сообщениям
Вы можете скачивать файлы