Статистика раздачи
Размер:  2,18 GB   |    Зарегистрирован:  21 день   |    Скачан:  0 раз

Полного источника не было: Никогда

 
   
 
 

Ueee ®

Пол:
Не указан
Стаж:
11 месяцев 14 дней
Сообщений:
947

Они любят друг друга уже 20 лет
Elles s'aiment depuis 20 ans- Название театра: Opéra de Reims
Страна: Франция
Жанр: лирическая комедия, лесби-тема
Год выпуска: 2017
Продолжительность: 01:33:44
Перевод: Субтитры (русский перевод Е.Маньен, ECLAIR)
Субтитры: русские, английские, французские, французские-телетекст, немецкие, нидерландские, румынские, испанские
Оригинальная аудиодорожка: французский
Режиссёр фильма: Ибао Бенедетти / Ybao Benedetti
Режиссёр-постановщик: Мюриэль Робен / Muriel Robin
В ролях: Мюриэль Робен / Muriel Robin (Mathilde Talaron), Мишель Ларок / Michèle Laroque (Isabelle Duroc)
Описание: В 1996 году Мюриэль Робен, Мишель Ларок и Пьер Пальмад создали скетч-шоу "Они любят друг друга", посвященное влюбленной паре двух женщин, которые делятся со зрителями моментами своей жизни: первое свидание, свадьба, семейные ссоры... Пьеса, пользующаяся огромным успехом, получила два продолжения: "Они любили друг друга / Ils se sont aimes" (2001) и "Они снова любят друг друга / Ils se re-aiment" (2012). В 2017 году к 20-летию существования этой пары вышел спектакль "Они любят друг друга уже 20 лет", состоящий из лучших скетчей трех спектаклей. Запись в Оперном театре Реймса 7 января 2017 г.
Доп. информация: Hot Bird (13.0°E) TV5MONDE Europe DVB-S. На территории некоторых стран для просмотра может требоваться возраст совершеннолетия.
Качество видео: DVB
Формат видео: MKV
Видео: MPEG Video 2, 720x576@1024x576 (16:9), 25 fps, ~3041 kbps avg, 0.293 bit/pixel
Аудио: MPEG Audio 2, 2 ch, 48 kHz, 192 kbps - французский
Формат субтитров: отключаемые (SRT)

Пример субтитров

1
00:00:10,062 --> 00:00:13,562
ОНИ ЛЮБЯТ ДРУГ ДРУГА
2
00:01:16,822 --> 00:01:20,504
Матильда Таларон,
согласны ли вы взять в жены
3
00:01:20,504 --> 00:01:23,180
Изабель Дюрок?
4
00:01:23,180 --> 00:01:24,555
Да.
5
00:01:25,701 --> 00:01:29,577
Изабель Дюрок,
согласны ли вы взять в жены
6
00:01:29,577 --> 00:01:32,702
Матильду Таларон?
7
00:01:38,510 --> 00:01:40,781
-Нет.
-Что?
8
00:01:40,781 --> 00:01:42,296
Что на тебя нашло?
9
00:01:42,296 --> 00:01:43,509
Изабель!
10
00:01:43,509 --> 00:01:46,584
-Я не глухая!
-Что на тебя нашло?
11
00:01:46,584 --> 00:01:48,500
А вот нашло!
12
00:01:48,500 --> 00:01:49,978
Отлично!
13
00:01:49,978 --> 00:01:52,260
Ты лицо моей матери видела?
14
00:01:52,260 --> 00:01:54,902
Как раз-таки видела!
15
00:01:54,902 --> 00:01:56,863
Что ты имеешь в виду?
16
00:01:56,863 --> 00:02:01,655
-Реакцию на "нет" видела?
-Я видела реакцию на "да".
17
00:02:01,655 --> 00:02:04,508
Изабель!
Почему ты ответила "нет"?
18
00:02:04,508 --> 00:02:08,262
Я не уловила смысл
вопроса мэра.
19
00:02:08,262 --> 00:02:09,584
Ты издеваешься.
20
00:02:09,584 --> 00:02:11,418
-Да.
-Тут она "да" говорит!

MediaInfo

General
Unique ID : 13644355064849087834372148757557425272 (0xA43CEA49A10DFC645231AF46EF83478)
Complete name : [apreder]Elles_s'aiment_depuis_20_ans(2017)DVB.mkv
Format : Matroska
Format version : Version 2
File size : 2.18 GiB
Duration : 1 h 34 min
Overall bit rate mode : Variable
Overall bit rate : 3 299 kb/s
Movie name : Elles s'aiment depuis 20 ans
Released date : 2017-01-07
Encoded date : UTC 2018-12-31 06:33:28
Writing application : mkvmerge v29.0.0 ('Like It Or Not') 64-bit
Writing library : libebml v1.3.6 + libmatroska v1.4.9
Cover : Yes
Attachments : cover.jpg / small_cover.jpg
ACTOR : Muriel Robin, Michele Laroque
DIRECTOR : Ybao Benedetti
GENRE : Comedy
IMDB : tt6433216
KEYWORDS : rutracker.org
LAW_RATING : 18+
WRITTEN_BY : Pierre Palmade
Video
ID : 1
Format : MPEG Video
Format version : Version 2
Format profile : Main@Main
Format settings : CustomMatrix / BVOP
Format settings, BVOP : Yes
Format settings, Matrix : Custom
Format settings, GOP : M=4, N=12
Format settings, picture structure : Frame
Codec ID : V_MPEG2
Codec ID/Info : MPEG 1 or 2 Video
Duration : 1 h 34 min
Bit rate mode : Variable
Bit rate : 3 041 kb/s
Maximum bit rate : 15.0 Mb/s
Width : 720 pixels
Height : 576 pixels
Display aspect ratio : 16:9
Active Format Description : Letterbox 16:9 image
Frame rate mode : Constant
Frame rate : 25.000 FPS
Standard : PAL
Color space : YUV
Chroma subsampling : 4:2:0
Bit depth : 8 bits
Scan type : Interlaced
Scan order : Top Field First
Compression mode : Lossy
Bits/(Pixel*Frame) : 0.293
Stream size : 2.01 GiB (92%)
Default : Yes
Forced : No
Audio
ID : 2
Format : MPEG Audio
Format version : Version 1
Format profile : Layer 2
Format settings : Joint stereo / Intensity Stereo + MS Stereo
Codec ID : A_MPEG/L2
Codec ID/Hint : MP2
Duration : 1 h 34 min
Bit rate mode : Constant
Bit rate : 192 kb/s
Channel(s) : 2 channels
Sampling rate : 48.0 kHz
Compression mode : Lossy
Stream size : 130 MiB (6%)
Language : French
Default : Yes
Forced : No
Text #1
ID : 3
Format : UTF-8
Codec ID : S_TEXT/UTF8
Codec ID/Info : UTF-8 Plain Text
Language : Russian
Default : No
Forced : No
Text #2
ID : 4
Format : UTF-8
Codec ID : S_TEXT/UTF8
Codec ID/Info : UTF-8 Plain Text
Language : English
Default : No
Forced : No
Text #3
ID : 5
Format : UTF-8
Codec ID : S_TEXT/UTF8
Codec ID/Info : UTF-8 Plain Text
Language : French
Default : No
Forced : No
Text #4
ID : 6
Format : UTF-8
Codec ID : S_TEXT/UTF8
Codec ID/Info : UTF-8 Plain Text
Title : Teletexte
Language : French
Default : No
Forced : No
Text #5
ID : 7
Format : UTF-8
Codec ID : S_TEXT/UTF8
Codec ID/Info : UTF-8 Plain Text
Language : German
Default : No
Forced : No
Text #6
ID : 8
Format : UTF-8
Codec ID : S_TEXT/UTF8
Codec ID/Info : UTF-8 Plain Text
Language : Dutch
Default : No
Forced : No
Text #7
ID : 9
Format : UTF-8
Codec ID : S_TEXT/UTF8
Codec ID/Info : UTF-8 Plain Text
Language : rom
Default : No
Forced : No
Text #8
ID : 10
Format : UTF-8
Codec ID : S_TEXT/UTF8
Codec ID/Info : UTF-8 Plain Text
Language : Spanish
Default : No
Forced : No

Скриншот с названием постановки

Скриншоты

Резервные скриншоты

- [4'440]
[torrents24.ru].t68956.torrent 
Торрент: Зарегистрирован [ 2019-01-01 16:35 ] · 0D0AF24B24EEABF916CAFCC39364E10DC89A9B3D

Скачать .torrent

Скачать

22 KB

Статус: проверено
Скачан: 0 раз
Размер: 2,18 GB

Профиль [ЛС]
Показать сообщения:    

Текущее время: 23-Янв 04:03

Часовой пояс: UTC + 3



Вы не можете начинать темы
Вы не можете отвечать на сообщения
Вы не можете редактировать свои сообщения
Вы не можете удалять свои сообщения
Вы не можете голосовать в опросах
Вы не можете прикреплять файлы к сообщениям
Вы можете скачивать файлы