Статистика раздачи
Размер:  13,62 GB   |    Зарегистрирован:  23 дня   |    Скачан:  0 раз

Полного источника не было: Никогда

 
   
 
 

Вектор ®

Пол:
Не указан
Стаж:
11 месяцев 19 дней
Сообщений:
1167

Гала-концерт к 200-летию Мариуса Петипа.
St Petersburg, Mariinsky Theatre: Marking 200 years since the birth of Marius Petipa. Gala Concert
Год выпуска:11 марта 2018г
Лейбл: Мариинский театр
Страна-производитель: Россия
Жанр: Ballet
Продолжительность: 00:49:03+00:53:09+00:58:12
Язык: Французский, английский
Режиссёр/Хореограф: Константин Кейхель, Джордж Баланчин, Мариуса Петипа
Дирижёр: Валерий Гергиев
Исполнители: (Исполнителей много, они указаны в спойлере каждой части)
Симфонический оркестр Мариинского театра
Автор записи: Собственная запись

-Описание:
11 марта, в день рождения Мариуса Петипа, специальную программу представит Мариинский театр. В гала-концерте выступят солисты балетной труппы и Симфонический оркестр, которым будет дирижировать Валерий Гергиев — художественный руководитель и директор театра. В честь юбилея балетмейстера весь март в театре будут идти постановки балетов в его хореографии: зрителей ждут «Лебединое озеро» и «Спящая красавица», «Жизель» и «Дон Кихот», «Пахита» и «Баядерка».
-Качество: HDTV
Формат: MKV
Видео кодек: H.264
Аудио кодек: MPEG 2
Видео: 11.6 Mbps (VBR), PAL, 1280 x 720 progressive (16:9), 50 fps
Аудио: 384 Kbps, 2 channels ( L R ), stereo, 48.0 KHz-Сэмпл | St Petersburg, Mariinsky Theatre-

I действие балета. «Времена года» (премьера). Одноактный балет. Act I

Музыка Александра Глазунова
Хореография Константина Кейхеля
Музыкальный руководитель и дирижер – Валерий Гергиев
Художник – Сергей Илларионов
Художник по свету – Константин Бинкин
Видеодизайн – Мария Феодориди, Максим Маловичко
Либреттист – Наталья Чумина
Исполнители:
Екатерина Чебыкина и Роман Беляков
Симфонический оркестр Мариинского театра
Дирижер – Валерий Гергиев

II действие балета «Сон в летнюю ночь» Act II

Музыка Феликса Мендельсона
Хореография Джорджа Баланчина
Художник-постановщик – Луиза Спинателли
Художник по свету – Сергей Лукин
Исполнители:
Титания – Анастасия Колегова
Оберон – Давид Залеев
Пак – Василий Ткаченко
Елена – Злата Ялинич
Гермия – Яна Селина
Лизандр – Юрий Смекалов
Деметрий – Александр Романчиков
Ипполита – Анастасия Матвиенко
Тезей – Виталий Амелишко
Pas de deux: Оксана Скорик и Константин Зверев
Партия сопрано – Людмила Дудинова
Симфонический оркестр Мариинского театра
Дирижер – Валерий Гергиев

III действие балета «Спящая красавица» Act III

Музыка Петра Чайковского
Хореография Мариуса Петипа (реконструкция спектакля 1890 года)
Декорации по эскизам Матвея Шишкова
Костюмы по эскизам Ивана Всеволожского
Музыкальный руководитель реконструкции – Валерий Гергиев
Хореограф-постановщик – Сергей Вихарев
Исполнители:
Принцесса Аврора – Алина Сомова
Принц Дезире – Ксандер Париш
Фея Сирени – Екатерина Кондаурова
Фея Бриллиантов – Валерия Мартынюк
Фея Карабос – Ислом Баймурадов
Принцесса Флорина – Мария Ширинкина
Голубая птица – Алексей Тимофеев
Симфонический оркестр Мариинского театра
Дирижер – Валерий Гергиев

Отчёт MediaInfo

Формат : Matroska
Версия формата : Version 4 / Version 2
Размер файла : 4,18 Гбайт
Продолжительность : 49 м.
Режим общего битрейта : Переменный
Общий поток : 12,2 Мбит/сек
Дата кодирования : UTC 2018-12-22 21:49:26
Программа кодирования : mkvmerge v28.2.0 ('The Awakening') 32-bit
Библиотека кодирования : libebml v1.3.6 + libmatroska v1.4.9
Видео
Идентификатор : 1
Формат : AVC
Формат/Информация : Advanced Video Codec
Профиль формата : Main@L4.0
Параметр CABAC формата : Да
Параметр ReFrames формата : 4 кадра
Параметр GOP формата : M=3, N=24
Идентификатор кодека : V_MPEG4/ISO/AVC
Продолжительность : 49 м.
Вид битрейта : Переменный
Битрейт : 11,6 Мбит/сек
Максимальный битрейт : 14,4 Мбит/сек
Ширина : 1280 пикселей
Высота : 720 пикселей
Соотношение сторон : 16:9
Режим частоты кадров : Постоянный
Частота кадров : 50,000 кадров/сек
Цветовое пространство : YUV
Субдискретизация насыщенности : 4:2:0
Битовая глубина : 8 бит
Тип развёртки : Прогрессивная
Бит/(Пиксели*Кадры) : 0.251
Размер потока : 3,96 Гбайт (95%)
Default : Да
Forced : Нет
Аудио
Идентификатор : 2
Формат : MPEG Audio
Версия формата : Version 1
Профиль формата : Layer 2
Идентификатор кодека : A_MPEG/L2
Идентификатор кодека/Подсказка : MP2
Продолжительность : 49 м.
Вид битрейта : Постоянный
Битрейт : 384 Кбит/сек
Каналы : 2 канала
Частота : 48,0 КГц
Метод сжатия : С потерями
Размер потока : 135 Мбайт (3%)
Язык : English
Default : Да
Forced : Нет
[torrents24.ru].t68612.torrent 
Торрент: Зарегистрирован [ 2018-12-30 17:55 ] · 2B7823C46FF9A2C1E634B2F7B10A6307FB4E00B1

Скачать .torrent

Скачать

69 KB

Статус: проверено
Скачан: 0 раз
Размер: 13,62 GB

Профиль [ЛС]
Показать сообщения:    

Текущее время: 23-Янв 03:50

Часовой пояс: UTC + 3



Вы не можете начинать темы
Вы не можете отвечать на сообщения
Вы не можете редактировать свои сообщения
Вы не можете удалять свои сообщения
Вы не можете голосовать в опросах
Вы не можете прикреплять файлы к сообщениям
Вы можете скачивать файлы