Статистика раздачи
Размер:  52,38 GB   |    Зарегистрирован:  1 месяц 9 дней   |    Скачан:  0 раз

Полного источника не было: Никогда

 
   
 
 

omniva ®

Пол:
Не указан
Стаж:
11 месяцев 14 дней
Сообщений:
337

Приключения Базза Лайтера и звёздной команды / Buzz Lightyear of Star Command
Страна: США
Жанр: Фантастика, комедия, семейный
Продолжительность серии: ~22-24 мин серия
Год выпуска: 2000-2001
Перевод: Профессиональный (дублированный)
Русские субтитры: нет
Режиссёр: Тед Стоунс / Tad Stones
Описание: Базз Лайтер, всем известный персонаж из знаменитой "Истории Игрушек", вместе со своей командой продолжает защищать вселенную от происков императора Зурга и прочих злодеев.
Доп. информация: Не хватает двух серий: "XL" и "The Return of XL". Качество видео различается: несколько первых серий записаны на старый видеоплеер, остальные на новый видеомагнитофон, но порядок серий на DVD сделан по моему усмотрению и отличается от телеэфирного
Качество: VHSRip
Формат: DVD-Video
Видео: 768*576, PAL 4/3, MPEG-2, 25 fps, 9400 Kbps
Аудио: AC3, 2 channels, 48 kHz, 256 Kbps
Субтитры: отсутствуют

Список серий

Диск 1
01 "Buzz Lightyear of Star Command: The Adventure Begins, Part 1"
02 "Buzz Lightyear of Star Command: The Adventure Begins, Part 2"
03 "Buzz Lightyear of Star Command: The Adventure Begins, Part 3"
53 "Lost in Time"
54 "Rookie of the Year"
Диск 2
56 "Rescue Mission"
09 "NOS-4-A2"
57 "Star Smasher"
04 "The Torque Armada"
11 "The Beasts of Karn"
Диск 3
61 "Speed Trap"
58 "Enemy Without a Face"
05 "Gravitina"
64 "Ancient Evil"
62 "Holiday Time"
Диск 4
65 "42"
20 "Shiv Katall"
27 "The Crawling Flesh"
34 "Head Case"
55 "Wirewolf"
Диск 5
28 "Dirty Work"
45 "The Starthought"
08 "Inside Job"
50 "First Missions"
51 "Large Target"
Диск 6
47 "Conspiracy"
59 "Good Ol' Buzz"
63 "Opposites Attract"
07 "Little Secrets"
10 "The Planet Destroyer"
Диск 7
48 "At Large on a Small Planet"
13 "The Main Event"
19 "Panic on Bathyos"
12 "Tag Team"
15 "Strange Invasion"
Диск 8
26 "The Plasma Monster"
60 "Return to Karn"
16 "The Taking of PC-7"
17 "Mindwarp"
18 "Mira's Wedding"
Диск 9
52 "War, and Peace and War"
21 "Stress Test"
22 "A Zoo Out There"
23 "Root of Evil"
24 "Super Nova"
Диск 10
30 "The Lightyear Factor"
25 "Downloaded"
29 "The Slayer"
31 "Clone Rangers"
32 "Bunzel Fever"
Диск 11
49 "Sunquake"
33 "Devolutionaries"
35 "The Yukari Imprint"
36 "The Shape Stealer"
37 "Star Crossed"
Диск 12
38 "Haunted Moon"
39 "Stranger Invasion"
40 "Eye of the Tempest"
42 "Lone Wolf"
43 "Planet of the Lost"
Диск 13
44 "Revenge of the Raenoks"
46 "Millennial Bugs"
41 "Revenge of the Monsters"

Подробные технические данные

General
Complete name : X:\Базз Лайтер из Звёздной команды\Диск 1 - серии № 1, 2, 3, 53, 54\VIDEO_TS\VTS_02_1.VOB
Format : MPEG-PS
File size : 851 MiB
Duration : 17 s 3 ms
Overall bit rate mode : Variable
Overall bit rate : 420 Mb/s
Video
ID : 224 (0xE0)
Format : MPEG Video
Format version : Version 2
Format profile : Main@Main
Format settings, BVOP : Yes
Format settings, Matrix : Default
Format settings, GOP : N=12
Format settings, picture st : Frame
Duration : 17 s 3 ms
Bit rate mode : Variable
Bit rate : 411 Mb/s
Maximum bit rate : 9 400 kb/s
Width : 720 pixels
Height : 576 pixels
Display aspect ratio : 4:3
Frame rate : 25.000 FPS
Standard : PAL
Color space : YUV
Chroma subsampling : 4:2:0
Bit depth : 8 bits
Scan type : Interlaced
Scan order : Top Field First
Compression mode : Lossy
Bits/(Pixel*Frame) : 39.652
Time code of first frame : 00:00:00:00
Time code source : Group of pictures header
GOP, Open/Closed : Open
GOP, Open/Closed of first f : Closed
Stream size : 833 MiB (98%)
Color primaries : BT.601 PAL
Transfer characteristics : BT.470 System B, BT.470 System G
Matrix coefficients : BT.601
Audio
ID : 189 (0xBD)-128 (0x80)
Format : AC-3
Format/Info : Audio Coding 3
Mode extension : CM (complete main)
Format settings, Endianness : Big
Muxing mode : DVD-Video
Duration : 16 s 683 ms
Bit rate mode : Constant
Bit rate : 256 kb/s
Channel(s) : 2 channels
Channel positions : Front: L R
Sampling rate : 48.0 kHz
Frame rate : 31.250 FPS (1536 spf)
Compression mode : Lossy
Stream size : 521 KiB (0%)
Предыдущие и альтернативные раздачи
[torrents24.ru].t65820.torrent 
Торрент: Зарегистрирован [ 2018-12-13 17:10 ] · FB7FA6A77016B78B6E88F45FA65A9F0F3EDE7D1D

Скачать .torrent

Скачать

154 KB

Статус: проверено
Скачан: 0 раз
Размер: 52,38 GB

Профиль [ЛС]
Показать сообщения:    

Текущее время: 23-Янв 04:00

Часовой пояс: UTC + 3



Вы не можете начинать темы
Вы не можете отвечать на сообщения
Вы не можете редактировать свои сообщения
Вы не можете удалять свои сообщения
Вы не можете голосовать в опросах
Вы не можете прикреплять файлы к сообщениям
Вы можете скачивать файлы