Alex ®

Пол:
Не указан
Стаж:
11 месяцев 18 дней
Сообщений:
855

Miguel - Told You So Жанр: Pop / R`n`B / Soul
Продолжительность: 00:03:30
Год выпуска: 2017
Описание: Исполнитель Miguel последователь музыкальных идей Michael Jackson и James Brown. Певец жанра танцевального R`n`B при помощи песен доносит до слушателей мысль о проблемах в современном обществе. Видео схожа с арт-хаусом, основная тема завуалирована оригинальными образами.
Данное творчество безусловно придется по вкусу фанатам вышеупомянутых артистов, а так привлечет внимание поклонников певца The Weeknd.
Качество: MasterRip
Разрешение видео/развертка: 1080p
Контейнер: MPEG4
Видео кодек: AVC
Аудио кодек: AAC
Видео: 1920 x 1080 (1.778) at 23.976 fps AVC at 19,4 Мбит/сек
Аудио: 2 канала, 48,0 КГц AAC at 317 Кбит/сек

Отчёт MediaInfo / BDInfo

Формат : MPEG-4
Профиль формата : Base Media / Version 2
Идентификатор кодека : mp42 (mp42/mp41)
Размер файла : 495 Мбайт
Продолжительность : 3 м. 30 с.
Режим общего битрейта : Переменный
Общий поток : 19,7 Мбит/сек
©TIM : 01:00:00:00
©TSC : 24000
©TSZ : 1001
Видео
Идентификатор : 1
Формат : AVC
Формат/Информация : Advanced Video Codec
Профиль формата : Main@L4.1
Параметр CABAC формата : Да
Параметр ReFrames формата : 3 кадра
Параметр GOP формата : M=4, N=24
Идентификатор кодека : avc1
Идентификатор кодека/Информация : Advanced Video Coding
Продолжительность : 3 м. 30 с.
Битрейт : 19,4 Мбит/сек
Ширина : 1920 пикселей
Высота : 1080 пикселей
Соотношение сторон : 16:9
Режим частоты кадров : Постоянный
Частота кадров : 23,976 (24000/1001) кадра/сек
Стандарт вещания : NTSC
Цветовое пространство : YUV
Субдискретизация насыщенности : 4:2:0
Битовая глубина : 8 бит
Тип развёртки : Прогрессивная
Бит/(Пиксели*Кадры) : 0.389
Размер потока : 487 Мбайт (98%)
Язык : English
Цветовой диапазон : Limited
Основные цвета : BT.709
Характеристики трансфера : BT.709
Коэффициенты матрицы : BT.709
Аудио
Идентификатор : 2
Формат : AAC
Формат/Информация : Advanced Audio Codec
Профиль формата : LC
Идентификатор кодека : 40
Продолжительность : 3 м. 30 с.
Продолжительность оригинала : 3 м. 31 с.
Вид битрейта : Переменный
Битрейт : 317 Кбит/сек
Максимальный битрейт : 459 Кбит/сек
Каналы : 2 канала
Расположение каналов : Front: L R
Частота : 48,0 КГц
Частота кадров : 46,875 кадров/сек (1024 spf)
Метод сжатия : С потерями
Размер потока : 7,98 Мбайт (2%)
Размер потока оригинала : 7,98 Мбайт (2%)
Язык : English

Скриншоты

Профиль [ЛС]
Показать сообщения:    

Текущее время: 23-Янв 04:31

Часовой пояс: UTC + 3



Вы не можете начинать темы
Вы не можете отвечать на сообщения
Вы не можете редактировать свои сообщения
Вы не можете удалять свои сообщения
Вы не можете голосовать в опросах
Вы не можете прикреплять файлы к сообщениям
Вы не можете скачивать файлы