Статистика раздачи
Размер:  898 MB   |    Зарегистрирован:  13 дней   |    Скачан:  0 раз

Полного источника не было: Никогда

 
   
 
 

hana vsem ®

Пол:
Не указан
Стаж:
10 месяцев 10 дней
Сообщений:
807

Секретные материалы: Борьба за будущее / The X-Files: Fight the Future
Music by Mark Snow
Limited Edition of 3000 Units
- -Жанр: Score | Дата выпуска: 29 июля 2014
Издатель (лейбл): La-La Land Records | Номер по каталогу: LLLCD 1308
Аудиокодек: FLAC (*.flac) | Тип рипа: image+.cue | Битрейт аудио: lossless
Источник: Рип оригинального диска из личной коллекции
-Продолжительность: 01:15:33
01. Threnody in "X" [03:18]
02. B.C. Blood [02:28]
03. Goop [04:20]
04. Soda Pop [00:53]
05. Quitting [04:46]
06. Already Dead [01:43]
07. Cave Base [01:32]
08. Remnants [02:13]
09. Plague [00:59]
10. Fossil Swings [03:24]
11. Goodbye Bronschweig [02:41]
12. A Call to Arms [00:59]
13. Elders / Crossroads [03:06]
14. Corn Hives [03:26]
15. Corn Copters [02:36]
16. Out Of Luck [01:01]
17. Stung Kissing / Cargo Hold [04:13]
18. Come And Gone [05:29]
19. Trust No One [02:53]
20. Ice Base [01:35]
21. Space Hole [02:14]
22. Mind Games [03:53]
23. Nightmare [02:45]
24. Pod Monster Suite [05:23]
25. Crate Hug [02:04]
26. Facts [02:35]
ADDITIONAL MUSIC
27. Plague (Alternate Segment) [01:29]
28. Crossroads (Album Version) [02:20]

EAC Log

Exact Audio Copy V1.0 beta 3 from 29. August 2011
EAC extraction logfile from 19. August 2014, 14:27
Mark Snow / The X-Files: Fight The Future
Used drive : TSSTcorpCDDVDW TS-L633C Adapter: 2 ID: 0
Read mode : Secure
Utilize accurate stream : Yes
Defeat audio cache : Yes
Make use of C2 pointers : No
Read offset correction : 6
Overread into Lead-In and Lead-Out : No
Fill up missing offset samples with silence : Yes
Delete leading and trailing silent blocks : No
Null samples used in CRC calculations : Yes
Used interface : Native Win32 interface for Win NT & 2000
Used output format : Internal WAV Routines
Sample format : 44.100 Hz; 16 Bit; Stereo
TOC of the extracted CD
Track | Start | Length | Start sector | End sector
---------------------------------------------------------
1 | 0:00.00 | 3:16.09 | 0 | 14708
2 | 3:16.09 | 2:28.00 | 14709 | 25808
3 | 5:44.09 | 4:19.49 | 25809 | 45282
4 | 10:03.58 | 4:45.51 | 45283 | 66708
5 | 14:49.34 | 0:53.35 | 66709 | 70718
6 | 15:42.69 | 1:42.55 | 70719 | 78423
7 | 17:25.49 | 1:32.35 | 78424 | 85358
8 | 18:58.09 | 2:12.40 | 85359 | 95298
9 | 21:10.49 | 3:24.20 | 95299 | 110618
10 | 24:34.69 | 0:59.40 | 110619 | 115083
11 | 25:34.34 | 2:41.35 | 115084 | 127193
12 | 28:15.69 | 0:59.20 | 127194 | 131638
13 | 29:15.14 | 2:53.35 | 131639 | 144648
14 | 32:08.49 | 3:06.30 | 144649 | 158628
15 | 35:15.04 | 2:35.65 | 158629 | 170318
16 | 37:50.69 | 1:01.30 | 170319 | 174923
17 | 38:52.24 | 4:13.10 | 174924 | 193908
18 | 43:05.34 | 5:28.65 | 193909 | 218573
19 | 48:34.24 | 2:52.65 | 218574 | 231538
20 | 51:27.14 | 1:34.65 | 231539 | 238653
21 | 53:02.04 | 2:14.10 | 238654 | 248713
22 | 55:16.14 | 3:53.22 | 248714 | 266210
23 | 59:09.36 | 2:45.13 | 266211 | 278598
24 | 61:54.49 | 5:23.00 | 278599 | 302823
25 | 67:17.49 | 2:04.30 | 302824 | 312153
26 | 69:22.04 | 2:37.55 | 312154 | 323983
27 | 71:59.59 | 1:26.05 | 323984 | 330438
28 | 73:25.64 | 2:19.57 | 330439 | 340920
Range status and errors
Selected range
Filename D:\Mark Snow - The X-Files [by italia57]\2014 - Fight The Future [LLLCD 1308]\Mark Snow - The X-Files - Fight The Future.wav
Peak level 100.0 %
Extraction speed 4.2 X
Range quality 100.0 %
Test CRC 19C87C24
Copy CRC 19C87C24
Copy OK
No errors occurred
AccurateRip summary
Track 1 not present in database
Track 2 not present in database
Track 3 not present in database
Track 4 not present in database
Track 5 not present in database
Track 6 not present in database
Track 7 not present in database
Track 8 not present in database
Track 9 not present in database
Track 10 not present in database
Track 11 not present in database
Track 12 not present in database
Track 13 not present in database
Track 14 not present in database
Track 15 not present in database
Track 16 not present in database
Track 17 not present in database
Track 18 not present in database
Track 19 not present in database
Track 20 not present in database
Track 21 not present in database
Track 22 not present in database
Track 23 not present in database
Track 24 not present in database
Track 25 not present in database
Track 26 not present in database
Track 27 not present in database
Track 28 not present in database
None of the tracks are present in the AccurateRip database
End of status report
---- CUETools DB Plugin V2.1.4
[CTDB TOCID: ZUuAXCPyPnQQifkkX9furdF0mv8-] found
Submit result: ZUuAXCPyPnQQifkkX9furdF0mv8- has been confirmed
Track | CTDB Status
1 | (6/6) Accurately ripped
2 | (5/6) Accurately ripped, or (1/6) differs in 4 samples @00:43:72
3 | (6/6) Accurately ripped
4 | (6/6) Accurately ripped
5 | (6/6) Accurately ripped
6 | (6/6) Accurately ripped
7 | (6/6) Accurately ripped
8 | (6/6) Accurately ripped
9 | (6/6) Accurately ripped
10 | (6/6) Accurately ripped
11 | (6/6) Accurately ripped
12 | (6/6) Accurately ripped
13 | (6/6) Accurately ripped
14 | (6/6) Accurately ripped
15 | (6/6) Accurately ripped
16 | (6/6) Accurately ripped
17 | (6/6) Accurately ripped
18 | (6/6) Accurately ripped
19 | (6/6) Accurately ripped
20 | (6/6) Accurately ripped
21 | (6/6) Accurately ripped
22 | (6/6) Accurately ripped
23 | (6/6) Accurately ripped
24 | (6/6) Accurately ripped
25 | (6/6) Accurately ripped
26 | (6/6) Accurately ripped
27 | (6/6) Accurately ripped
28 | (6/6) Accurately ripped
==== Log checksum A73B5FF6BA0906B41BC52E461620129F46B6DDD6F9FBE30212093B312955BD03 ====
--
[torrents24.ru].t65014.torrent 
Торрент: Зарегистрирован [ 2018-12-06 16:55 ] · 15C49AC853A635E4CF051E3570FC8AC7473856B2

Скачать .torrent

Скачать

20 KB

Статус: проверено
Скачан: 0 раз
Размер: 898 MB

Профиль [ЛС]
Показать сообщения:    

Текущее время: 19-Дек 18:56

Часовой пояс: UTC + 3



Вы не можете начинать темы
Вы не можете отвечать на сообщения
Вы не можете редактировать свои сообщения
Вы не можете удалять свои сообщения
Вы не можете голосовать в опросах
Вы не можете прикреплять файлы к сообщениям
Вы можете скачивать файлы