Статистика раздачи
Размер:  2,8 GB   |    Зарегистрирован:  13 дней   |    Скачан:  0 раз

Полного источника не было: Никогда

 
   
 
 

АААааа ®

Пол:
Не указан
Стаж:
9 месяцев 20 дней
Сообщений:
1020

Качели
Год выпуска: 2018
Производство: SpaghettiFilm, Авантдрайв
Жанр: криминал, драма
Продолжительность: ~00:50:00 серия
Субтитры: нет
Режиссёр: Владимир Зинкевич
В ролях: Михаил Каминский, Артём Дубницкий, Владимир Зинкевич, Анатолий Седач, Сосо (Иосиф) Павлиашвили, Олег Тактаров, Адриана Кузьмина, Мурад Раджабов, Константин Мурзенко, Гия Каркоташвили, Дмитрий Гурбанович, Евгений Сташевский, Вячеслав Павлють, Евгений Пахомов, Илона Коробова, Люция Геращенко, Андрей Тесленок, Александр Числов, Сергей Сак, Георгий Чантурия, Герман Дятко, Татьяна Жевнова, Хильда Кармен, Владимир Аверьянов, Наталья Роше
Описание: Руслан Миронов приезжает в большой город, где хочет начать новую жизнь. Сняв комнату у риелтора-афериста, Руслан заселяется в квартиру, которую сдали днем раньше освободившемуся из тюрьмы вору в законе Науму. Это история о молодом парне, который по стечению обстоятельств оказался внутри криминального мира. Каково это — жить по понятиям, чем сейчас живет криминальный мир? Сможет ли парень противостоять соблазну легкой наживы и «успеха»? Какой путь выберет герой?

Реклама: Нет.
Кинопоиск
Все раздачи сериала
Sample
Качество: WEBRip - 25Kuzmich
Формат: AVI
Видео кодек: XviD
Аудио кодек: AC3
Видео: 720x400 (1.80:1), 25 fps, XviD ~1650 kbps avg, 0.229 bit/pixel
Аудио: 48.0 kHz, AC3 Dolby Digital, 2/0 (L,R) ch, ~ 192 kbps

Внимание! Раздача ведётся путём добавления новых серий

Раздача ведётся путём добавления новых серий, при каждом добавлении создаётся новый торрент. Чтобы начать докачку новой серии, пользователям необходимо сделать следующее:
- Остановить скачивание.
- Удалить старый торрент у себя из клиента (старые серии удалять не надо).
- Скачать новый торрент и запустить его у себя в клиенте вместо старого, при этом указать клиенту путь в старую папку куда и должно происходить скачивание новых серий.
Ваш клиент при этом должен произвести хеширование (проверку) старой папки (если не производит сам - помогите ему сделать это), и будет докачивать только те серии которых у вас ещё нет. Старые серии при этом не удаляются, а продолжают раздаваться!
Если вы уже удалили старые серии, то предотвратить повторную закачку старых серий можно, отжав галочку в соответствующих местах при запуске нового торрента. По возможности, желательно не удалять старые серии как можно дольше, чтобы релизер не столько продолжал раздавать старые серии, а смог сконцентрироваться на новых.

MI

General
Complete name : D:\Kacheli.2018.WEB-DLRip.25Kuzmich\Kacheli.(01.seriya.iz.08).WEB-DLRip.25Kuzmich.avi
Format : AVI
Format/Info : Audio Video Interleave
File size : 669 MiB
Duration : 50 min 32 s
Overall bit rate : 1 852 kb/s
Writing application : VirtualDubMod 1.5.10.3 | www.virtualdub-fr.org || (build 2550/release)
Writing library : VirtualDubMod build 2550/release
Video
ID : 0
Format : MPEG-4 Visual
Format profile : Advanced Simple@L5
Format settings : BVOP1
Format settings, BVOP : 1
Format settings, QPel : No
Format settings, GMC : No warppoints
Format settings, Matrix : Default (MPEG)
Codec ID : XVID
Codec ID/Hint : XviD
Duration : 50 min 32 s
Bit rate : 1 650 kb/s
Width : 720 pixels
Height : 400 pixels
Display aspect ratio : 16:9
Frame rate : 25.000 FPS
Color space : YUV
Chroma subsampling : 4:2:0
Bit depth : 8 bits
Scan type : Progressive
Compression mode : Lossy
Bits/(Pixel*Frame) : 0.229
Stream size : 596 MiB (89%)
Writing library : XviD 1.2.1 (UTC 2008-12-04)
Audio
ID : 1
Format : AC-3
Format/Info : Audio Coding 3
Codec ID : 2000
Duration : 50 min 32 s
Bit rate mode : Constant
Bit rate : 192 kb/s
Channel(s) : 2 channels
Channel positions : Front: L R
Sampling rate : 48.0 kHz
Frame rate : 31.250 FPS (1536 SPF)
Bit depth : 16 bits
Compression mode : Lossy
Stream size : 69.4 MiB (10%)
Alignment : Split accross interleaves
Interleave, duration : 40 ms (1.00 video frame)
Interleave, preload duratio : 500 ms
Service kind : Complete Main

Скриншоты


[torrents24.ru].t65010.torrent 
Торрент: Зарегистрирован [ 2018-12-06 16:55 ] · 4EB1FFF1EA2641308AFEB1EE168530ACF59787EE

Скачать .torrent

Скачать

15 KB

Статус: проверено
Скачан: 0 раз
Размер: 2,8 GB

Профиль [ЛС]
Показать сообщения:    

Текущее время: 19-Дек 19:46

Часовой пояс: UTC + 3



Вы не можете начинать темы
Вы не можете отвечать на сообщения
Вы не можете редактировать свои сообщения
Вы не можете удалять свои сообщения
Вы не можете голосовать в опросах
Вы не можете прикреплять файлы к сообщениям
Вы можете скачивать файлы