Статистика раздачи
Размер:  182 MB   |    Зарегистрирован:  13 дней   |    Скачан:  0 раз

Полного источника не было: Никогда

 
   
 
 

Zlo ®

Пол:
Не указан
Стаж:
10 месяцев 15 дней
Сообщений:
640

Катя и Эф. Куда-угодно-дверь- Страна: Россия
Студия: Паровоз
Жанр: детский, обучающий
Продолжительность: 00:05:30
Год выпуска: 2018
Режиссер: Роман Трамвай
В ролях: Алиса Текучёва, Даниил Эльдаров
Возраст: 3+
Сюжет фильма:
Откуда появляются булочки на завтрак, почему подводная лодка все время тонет, как из горы получаются вилки и ложки и зачем синоптикам сачки?
Девочка Катя и ее друг ЭФ путешествуют по пекарням, заводам, поездам, пароходам и разбираются, как все устроено и какие бывают профессии. Каждый раз они возвращаются обратно, полные впечатлений и новых знаний. И всегда с неожиданными выводами.-Качество видео: WEBRip 1080p
Формат файла: mp4
Видео: кодек: AVC, размер кадра: 1920x1080 (16:9), битрейт: ~900 кб/с, частота кадров: ~25 кадра/сек
Аудио: язык: русский (оригинал), частота дискретизации: 44100 Гц, аудиокодек: AAC, 2 ch, битрейт аудио: 128 кб/с-

Список серий

  • Письмо
  • Рыбный день
  • Дом на колёсах
  • Булочкомат
  • MediaInfo

    Общее
    Полное имя : \Катя и Эф. Куда-угодно-дверь\Катя и Эф 01 - Письмо.mp4
    Формат : MPEG-4
    Профиль формата : Base Media
    Идентификатор кодека : isom (isom/iso2/avc1/mp41)
    Размер файла : 41,0 Мбайт
    Продолжительность : 5 м. 30 с.
    Общий поток : 1043 Кбит/сек
    Программа кодирования : Lavf56.40.101
    Видео
    Идентификатор : 1
    Формат : AVC
    Формат/Информация : Advanced Video Codec
    Профиль формата : High@L4
    Настройки формата : CABAC / 3 Ref Frames
    Параметр CABAC формата : Да
    Параметр RefFrames формата : 3 кадра
    Идентификатор кодека : avc1
    Идентификатор кодека/Информация : Advanced Video Coding
    Продолжительность : 5 м. 29 с.
    Duration_FirstFrame : -40 мс.
    Битрейт : 909 Кбит/сек
    Ширина : 1920 пикселей
    Высота : 1080 пикселей
    Соотношение сторон : 16:9
    Режим частоты кадров : Переменный
    Частота кадров : 25,000 кадров/сек
    Минимальная частота кадров : 25,000 кадров/сек
    Максимальная частота кадров : 25,098 кадров/сек
    Цветовое пространство : YUV
    Субдискретизация насыщенности : 4:2:0
    Битовая глубина : 8 бит
    Тип развёртки : Прогрессивная
    Бит/(Пиксели*Кадры) : 0.018
    Размер потока : 35,8 Мбайт (87%)
    Цветовой диапазон : Limited
    Основные цвета : BT.709
    Характеристики трансфера : BT.709
    Коэффициенты матрицы : BT.709
    Codec configuration box : avcC
    Аудио
    Идентификатор : 2
    Формат : AAC LC
    Формат/Информация : Advanced Audio Codec Low Complexity
    Идентификатор кодека : mp4a-40-2
    Продолжительность : 5 м. 30 с.
    Вид битрейта : Постоянный
    Битрейт : 128 Кбит/сек
    Каналы : 2 канала
    Channel layout : L R
    Частота : 44,1 КГц
    Частота кадров : 43,066 кадра/сек (1024 SPF)
    Метод сжатия : С потерями
    Размер потока : 5,04 Мбайт (12%)
    Default : Да
    AlternateGroup/String : 1

    Скриншоты

    Источник

    Мульт (youtube)

    Мои рекомендации

    Бурёнка Даша [детский, караоке]
    Фиксики [семейный, познавательный]
    Смешарики, Пин-код [семейный, познавательный]
    Катя и Эф. Куда-угодно-дверь [семейный, познавательный]
    Рисунки Тёмы / Didou, dessine-moi / Louie, draw me [детский, познавательный]
    Аркадий Паровозов спешит на помощь [детский, познавательный]
    Бумажки [детский]
    Ми-ми-мишки [детский]
    Лео и Тиг [детский]
    Приключения Ам Няма / Cut the Rope [семейный]
    Машинки (Сериал для мальчиков) [детский, обучающий]
    Грузовичок Лёва [детский, развивающий]
    Экскаватор Мася [детский, развивающий]
    Машины помощники [детский, развивающий]
    Четыре машинки [детский, развивающий]
    Малыши-грузовички (Tiny Trucks) [детский, развивающий]
    Веселый конструктор [детский, развивающий]
    Малышарики [обучающий, детский]
    Котики, вперед! [обучающий, детский]
    Летающие Звери, Малыши и Летающие звери [детский]
    Гора самоцветов [детский]
    Мульти-Россия [детский]
    Автомобильный Город / Car City [детский]
    Щенячий патруль / PAW Patrol [детский]
    Робокар Поли / Robocar Poli [детский]
    Супер Крылья: Джетт и его друзья / Super Wings [детский]
    *Отсутствующие на трекере пока можно найти на ютубе.

    Внимание! Раздача ведётся путём добавления новых выпусков.

    Раздача ведётся путём добавления новых выпусков. При каждом добавлении создётся новый торрент. Чтобы начать докачку новой серии, пользователям необходимо сделать следующее:
    (1) остановить скачивание,
    (2) удалить старый торрент у себя из клиента (старые серии удалять не надо),
    (3) скачать новый торрент и запустить его у себя в клиенте вместо старого, при этом указать клиенту путь в старую папку куда и должно происходить скачивание новых серий.
    Ваш клиент при этом должен произвести хеширование (проверку) старой папки (если не производит сам - помогите ему сделать это), и будет докачивать только те серии которых у вас ещё нет. Старые серии при этом не удаляются, а продолжают раздаваться!
    Eсли вы уже удалили старые серии, то предотвратить повторную закачку старых серий можно, отжав галочку в соответсвующих местах при запуске нового торрента.
    [torrents24.ru].t64994.torrent 
    Торрент: Зарегистрирован [ 2018-12-06 16:55 ] · 1A2C7CD53BBFC8C408C6F1BB989D6DE47D514038

    Скачать .torrent

    Скачать

    16 KB

    Статус: проверено
    Скачан: 0 раз
    Размер: 182 MB

    Профиль [ЛС]
    Показать сообщения:    

    Текущее время: 19-Дек 18:36

    Часовой пояс: UTC + 3



    Вы не можете начинать темы
    Вы не можете отвечать на сообщения
    Вы не можете редактировать свои сообщения
    Вы не можете удалять свои сообщения
    Вы не можете голосовать в опросах
    Вы не можете прикреплять файлы к сообщениям
    Вы можете скачивать файлы