Статистика раздачи
Размер:  2,93 GB   |    Зарегистрирован:  13 дней   |    Скачан:  0 раз

Полного источника не было: Никогда

 
   
 
 

Поля ®

Пол:
Не указан
Стаж:
10 месяцев 10 дней
Сообщений:
521

Девушка моих кошмаров / The Heartbreak Kid / Fullscreen
Страна: США
Жанр: комедия
Год выпуска: 2007
Продолжительность: 01:55:33
Перевод: Профессиональный (дублированный) Пифагор
Субтитры: русские, английские
Оригинальная аудиодорожка: английский
Режиссер: Бобби Фаррелли / Bobby Farrelly, Питер Фаррелли / Peter Farrelly
В ролях: Бен Стиллер, Малин Акерман, Мишель Монахэн, Джерри Стиллер, Роб Кордри, Карлос Менсиа, Скотт Уилсон, Полли Холлидей, Дэнни МакБрайд, Рой Дженкинс...
Описание: История о парне, терпевшем неудачу за неудачей на любовном фронте и в результате женившемся на идеальной, вроде бы, девушке, которая только во время медового месяца открыла свое истинное лицо — психопатки, экстремалки и капризной стервы. Он в шоке, но тут на горизонте появляется настоящая Девушка Его Мечты — умница-красавица, веселушка и вообще — само совершенство.
Доп. информация: Исходник видео предоставил warlock24. Дубляж с Blu-Ray.
Сэмпл: http://sendfile.su/1459563
Качество видео: DVDRip-AVC
Формат видео: MKV
Видео: 720x480 (4:3) @ 720x540, 23.976 fps, AVC, ~2738 Kbps, 0.330 bits/pixel
Аудио 1: Russian, 48.0 KHz, AC3, 6 ch, 448 Kbps - Пифагор
Аудио 2: English, 48.0 KHz, AC3, 6 ch, 448 Kbps

Log

avs4x26x.exe: -L x264_64.exe --pass 2 --bitrate 2738 --preset medium --tune film --level 4.1 --ref 10 --merange 32 --bframes 10 --direct auto --b-adapt 2 --trellis 2 --no-fast-pskip --no-dct-decimate --psy-rd 1.00:0.20 --subme 10 --me umh --no-mbtree --vbv-bufsize 62500 --vbv-maxrate 50000 --partitions p8x8,b8x8,i4x4,i8x8 --sar 8:9 --stats
raw [info]: 720x480p 8:9 @ 24000/1001 fps (cfr)
x264 [info]: using SAR=8/9
x264 [info]: using cpu capabilities: MMX2 SSE2Fast LZCNT
x264 [info]: profile High, level 4.1, 4:2:0, 8-bit
x264 [info]: frame I:1403 Avg QP:17.22 size: 76885
x264 [info]: frame P:35723 Avg QP:19.93 size: 29983
x264 [info]: frame B:129105 Avg QP:22.31 size: 9243
x264 [info]: consecutive B-frames: 1.9% 1.7% 19.2% 4.2% 3.6% 66.6% 0.8% 0.0% 0.1% 1.5% 0.4%
x264 [info]: mb I I16..4: 5.4% 83.2% 11.4%
x264 [info]: mb P I16..4: 0.8% 20.4% 1.7% P16..4: 29.2% 23.5% 18.1% 0.0% 0.0% skip: 6.3%
x264 [info]: mb B I16..4: 0.1% 2.0% 0.2% B16..8: 41.4% 12.2% 3.9% direct: 7.7% skip:32.6% L0:34.6% L1:26.0% BI:39.4%
x264 [info]: 8x8 transform intra:88.2% inter:61.3%
x264 [info]: direct mvs spatial:96.8% temporal:3.2%
x264 [info]: coded y,uvDC,uvAC intra: 94.6% 91.9% 73.5% inter: 34.1% 27.2% 12.2%
x264 [info]: i16 v,h,dc,p: 38% 11% 18% 33%
x264 [info]: i8 v,h,dc,ddl,ddr,vr,hd,vl,hu: 13% 13% 23% 7% 8% 8% 8% 9% 11%
x264 [info]: i4 v,h,dc,ddl,ddr,vr,hd,vl,hu: 13% 9% 6% 9% 14% 14% 12% 11% 12%
x264 [info]: i8c dc,h,v,p: 47% 20% 17% 15%
x264 [info]: Weighted P-Frames: Y:2.2% UV:0.7%
x264 [info]: ref P L0: 47.1% 14.4% 18.1% 4.5% 5.1% 2.6% 3.3% 1.5% 2.0% 1.5% 0.1% 0.0%
x264 [info]: ref B L0: 84.0% 9.4% 2.7% 1.4% 0.8% 0.7% 0.5% 0.3% 0.1%
x264 [info]: ref B L1: 97.0% 3.0%
x264 [info]: kb/s:2737.24
x264 [total]: encoded 166231 frames, 11.99 fps, 2737.24 kb/s

MediaInfo

General
Unique ID : 105142874393462548242689153874964754880 (0x4F19C7F1252266186278C06449E3B1C0)
Complete name : C:\The Heartbreak Kid [Fullscreen].mkv
Format : Matroska
Format version : Version 4 / Version 2
File size : 2.93 GiB
Duration : 1 h 55 min
Overall bit rate : 3 636 kb/s
Encoded date : UTC 2018-12-05 04:22:26
Writing application : mkvmerge v29.0.0 ('Like It Or Not') 64-bit
Writing library : libebml v1.3.6 + libmatroska v1.4.9
Video
ID : 1
Format : AVC
Format/Info : Advanced Video Codec
Format profile : High@L4.1
Format settings : CABAC / 10 Ref Frames
Format settings, CABAC : Yes
Format settings, ReFrames : 10 frames
Codec ID : V_MPEG4/ISO/AVC
Duration : 1 h 55 min
Bit rate : 2 738 kb/s
Width : 720 pixels
Height : 480 pixels
Display aspect ratio : 4:3
Frame rate mode : Constant
Frame rate : 23.976 (24000/1001) FPS
Color space : YUV
Chroma subsampling : 4:2:0
Bit depth : 8 bits
Scan type : Progressive
Bits/(Pixel*Frame) : 0.330
Stream size : 2.21 GiB (75%)
Writing library : x264 core 157 r2935 545de2f
Encoding settings : cabac=1 / ref=10 / deblock=1:-1:-1 / analyse=0x3:0x113 / me=umh / subme=10 / psy=1 / psy_rd=1.00:0.20 / mixed_ref=1 / me_range=32 / chroma_me=1 / trellis=2 / 8x8dct=1 / cqm=0 / deadzone=21,11 / fast_pskip=0 / chroma_qp_offset=-3 / threads=6 / lookahead_threads=1 / sliced_threads=0 / nr=0 / decimate=0 / interlaced=0 / bluray_compat=0 / constrained_intra=0 / bframes=10 / b_pyramid=2 / b_adapt=2 / b_bias=0 / direct=3 / weightb=1 / open_gop=0 / weightp=2 / keyint=250 / keyint_min=23 / scenecut=40 / intra_refresh=0 / rc_lookahead=40 / rc=2pass / mbtree=0 / bitrate=2738 / ratetol=1.0 / qcomp=0.60 / qpmin=0 / qpmax=69 / qpstep=4 / cplxblur=20.0 / qblur=0.5 / vbv_maxrate=50000 / vbv_bufsize=62500 / nal_hrd=none / filler=0 / ip_ratio=1.40 / pb_ratio=1.30 / aq=1:1.00
Language : English
Default : Yes
Forced : No
Audio #1
ID : 2
Format : AC-3
Format/Info : Audio Coding 3
Commercial name : Dolby Digital
Codec ID : A_AC3
Duration : 1 h 55 min
Bit rate mode : Constant
Bit rate : 448 kb/s
Channel(s) : 6 channels
Channel layout : L R C LFE Ls Rs
Sampling rate : 48.0 kHz
Frame rate : 31.250 FPS (1536 SPF)
Bit depth : 16 bits
Compression mode : Lossy
Stream size : 370 MiB (12%)
Title : Пифагор
Language : Russian
Service kind : Complete Main
Default : Yes
Forced : No
Audio #2
ID : 3
Format : AC-3
Format/Info : Audio Coding 3
Commercial name : Dolby Digital
Codec ID : A_AC3
Duration : 1 h 55 min
Bit rate mode : Constant
Bit rate : 448 kb/s
Channel(s) : 6 channels
Channel layout : L R C LFE Ls Rs
Sampling rate : 48.0 kHz
Frame rate : 31.250 FPS (1536 SPF)
Bit depth : 16 bits
Compression mode : Lossy
Stream size : 370 MiB (12%)
Language : English
Service kind : Complete Main
Default : No
Forced : No
Text #1
ID : 4
Format : UTF-8
Codec ID : S_TEXT/UTF8
Codec ID/Info : UTF-8 Plain Text
Duration : 1 h 50 min
Bit rate : 140 b/s
Count of elements : 1964
Stream size : 113 KiB (0%)
Language : Russian
Default : No
Forced : No
Text #2
ID : 5
Format : UTF-8
Codec ID : S_TEXT/UTF8
Codec ID/Info : UTF-8 Plain Text
Duration : 1 h 50 min
Bit rate : 90 b/s
Count of elements : 1951
Stream size : 72.9 KiB (0%)
Language : English
Default : No
Forced : No
Menu
00:00:00.000 : :Chapter 01
00:07:47.335 : :Chapter 02
00:13:02.002 : :Chapter 03
00:18:31.338 : :Chapter 04
00:22:53.505 : :Chapter 05
00:30:52.506 : :Chapter 06
00:38:56.009 : :Chapter 07
00:44:57.176 : :Chapter 08
00:57:32.180 : :Chapter 09
01:03:52.047 : :Chapter 10
01:12:21.849 : :Chapter 11
01:18:51.351 : :Chapter 12
01:28:25.019 : :Chapter 13
01:33:47.686 : :Chapter 14
01:41:38.521 : :Chapter 15
01:47:58.021 : :Chapter 16

Скриншоты

[torrents24.ru].t64985.torrent 
Торрент: Зарегистрирован [ 2018-12-06 16:55 ] · 4C7F5B273005B973E361B2252202629750CB9D92

Скачать .torrent

Скачать

15 KB

Статус: проверено
Скачан: 0 раз
Размер: 2,93 GB

Профиль [ЛС]
Показать сообщения:    

Текущее время: 19-Дек 18:30

Часовой пояс: UTC + 3



Вы не можете начинать темы
Вы не можете отвечать на сообщения
Вы не можете редактировать свои сообщения
Вы не можете удалять свои сообщения
Вы не можете голосовать в опросах
Вы не можете прикреплять файлы к сообщениям
Вы можете скачивать файлы