Статистика раздачи
Размер:  18,83 GB   |    Зарегистрирован:  13 дней   |    Скачан:  0 раз

Полного источника не было: Никогда

 
   
 
 

kex ®

Пол:
Не указан
Стаж:
10 месяцев 11 дней
Сообщений:
1025

Хлеб на радость / Хлеб счастья / Shiawase no pan / Bread Of Happines
Страна: Япония
Студия: Creative Office Cue, Asmik Ace Entertainment, Amuse
Жанр: драма, комедия
Год выпуска: 2012
Продолжительность: 01:53:55
Перевод: Одноголосый закадровый D.I.M.
Субтитры: английские
Оригинальная аудиодорожка: японский
Режиссер: Юкико Мишима / Yukiko Mishima
В ролях: Томоё Харада, Ё Оидзуми, Кэн Мицуиси, Кимико Ё, Морио Агата, Юта Хираока, Рики Хонда, Нобуэ Икэтани, Kenta Imanishi, Рэйка Кирисима, Канна Мори, Кацуо Накамура, Ясухи Накамура и др.
Описание: Сан и Ри — молодая супружеская пара. Они решили переехать из Токио к озеру Тоя, которое находится на острове Хоккайдо. Там супруги открывают хлебобулочный ресторанчик под названием «Мани». Сан печёт хлеб, а его жена Ри готовит пищу, которая прекрасно дополняет выпечку её мужа. Так как Сан и Ри готовят от всего сердца, то круглый год клиенты, уходя из их ресторана, чувствуют себя счастливыми.
-
Сэмпл IMDB Кинопоиск
-
Доп. информация:
За перевод спасибо dim7022
Английские субтитры найдены в сети.
Тип релиза: BDRip 1080p
Контейнер: MKV
Видео: AVC / 1920x1038 / 16:9 / 23.976 fps / 21959 Kbps / High@L4.1
Аудио 1 Rus: AC3 / 48.0 KHz / 2.0 / 192 kbps / VO / D.I.M.
Аудио 2 Jpn: DTS Core 48.0 KHz / 2.0 / 1509 kbps / 24 bit
Формат субтитров: softsub (SRT)

MediaInfo

Общее
Уникальный идентификатор : 299228278366047053554218618964691295460 (0xE11D4528A20EAE4A3DA63B37581E9CE4)
Полное имя : E:\porvaliparus.2018\Bread.of.Happiness.2012.BDRip.1080p.mkv
Формат : Matroska
Версия формата : Version 4 / Version 2
Размер файла : 18,8 Гбайт
Продолжительность : 1 ч. 53 м.
Общий поток : 23,7 Мбит/сек
Название фильма : Bread.of.Happiness.2012.BDRip.1080p-porvaliparus
Дата кодирования : UTC 2018-12-04 09:55:52
Программа кодирования : mkvmerge v29.0.0 ('Like It Or Not') 64-bit
Библиотека кодирования : libebml v1.3.6 + libmatroska v1.4.9
Видео
Идентификатор : 1
Формат : AVC
Формат/Информация : Advanced Video Codec
Профиль формата : High@L4.1
Настройки формата : CABAC / 4 Ref Frames
Параметр CABAC формата : Да
Параметр RefFrames формата : 4 кадра
Идентификатор кодека : V_MPEG4/ISO/AVC
Продолжительность : 1 ч. 53 м.
Битрейт : 22,0 Мбит/сек
Ширина : 1920 пикселей
Высота : 1038 пикселей
Соотношение сторон : 1,85:1
Режим частоты кадров : Постоянный
Частота кадров : 23,976 (24000/1001) кадра/сек
Цветовое пространство : YUV
Субдискретизация насыщенности : 4:2:0
Битовая глубина : 8 бит
Тип развёртки : Прогрессивная
Бит/(Пиксели*Кадры) : 0.460
Размер потока : 17,5 Гбайт (93%)
Заголовок : Bread.of.Happiness.2012.BDRip.1080p
Библиотека кодирования : x264 core 120 r2164 da19765
Настройки программы : cabac=1 / ref=4 / deblock=1:-2:-2 / analyse=0x3:0x133 / me=tesa / subme=10 / psy=1 / psy_rd=0.40:0.00 / mixed_ref=1 / me_range=24 / chroma_me=1 / trellis=2 / 8x8dct=1 / cqm=0 / deadzone=21,11 / fast_pskip=1 / chroma_qp_offset=-2 / threads=12 / sliced_threads=0 / nr=0 / decimate=0 / interlaced=0 / bluray_compat=0 / constrained_intra=0 / bframes=8 / b_pyramid=2 / b_adapt=2 / b_bias=0 / direct=3 / weightb=1 / open_gop=0 / weightp=2 / keyint=300 / keyint_min=2 / scenecut=40 / intra_refresh=0 / rc_lookahead=60 / rc=2pass / mbtree=1 / bitrate=22000 / ratetol=1.0 / qcomp=0.70 / qpmin=0 / qpmax=69 / qpstep=4 / cplxblur=20.0 / qblur=0.5 / vbv_maxrate=50000 / vbv_bufsize=45000 / nal_hrd=none / ip_ratio=1.40 / aq=2:1.30
Default : Да
Forced : Нет
Аудио #1
Идентификатор : 2
Формат : AC-3
Формат/Информация : Audio Coding 3
Идентификатор кодека : A_AC3
Продолжительность : 1 ч. 53 м.
Вид битрейта : Постоянный
Битрейт : 192 Кбит/сек
Каналы : 2 канала
Расположение каналов : Front: L R
Частота : 48,0 КГц
Частота кадров : 31,250 кадров/сек (1536 SPF)
Битовая глубина : 16 бит
Метод сжатия : С потерями
Размер потока : 156 Мбайт (1%)
Заголовок : VO [D.I.M.]
Язык : Russian
ServiceKind/String : Complete Main
Default : Да
Forced : Нет
Аудио #2
Идентификатор : 3
Формат : DTS
Формат/Информация : Digital Theater Systems
Идентификатор кодека : A_DTS
Продолжительность : 1 ч. 53 м.
Вид битрейта : Постоянный
Битрейт : 1509 Кбит/сек
Каналы : 2 канала
Расположение каналов : Front: L R
Частота : 48,0 КГц
Частота кадров : 93,750 кадра/сек (512 SPF)
Битовая глубина : 24 бит
Метод сжатия : С потерями
Размер потока : 1,20 Гбайт (6%)
Язык : Japanese
Default : Нет
Forced : Нет
Текст
Идентификатор : 4
Формат : UTF-8
Идентификатор кодека : S_TEXT/UTF8
Идентификатор кодека/Информация : UTF-8 Plain Text
Продолжительность : 1 ч. 53 м.
Битрейт : 32 бит/сек
ElementCount : 904
Размер потока : 27,2 Кбайт (0%)
Язык : English
Default : Нет
Forced : Нет
Меню
00:00:00.000 : en:Chapter 01
00:04:51.124 : en:Chapter 02
00:10:07.940 : en:Chapter 03
00:16:43.669 : en:Chapter 04
00:22:49.659 : en:Chapter 05
00:29:27.849 : en:Chapter 06
00:37:13.230 : en:Chapter 07
00:43:53.631 : en:Chapter 08
00:50:12.134 : en:Chapter 09
00:54:30.433 : en:Chapter 10
01:03:32.683 : en:Chapter 11
01:14:05.065 : en:Chapter 12
01:23:16.449 : en:Chapter 13
01:33:21.554 : en:Chapter 14
01:40:58.177 : en:Chapter 15
01:47:55.886 : en:Chapter 16
01:53:54.494 : en:Chapter 17

Скриншоты


MI исходника

Общее
Уникальный идентификатор : 208676504642775904579206768353508678337 (0x9CFDA2059D1C18A69073767CC8D95AC1)
Полное имя : F:\!!!!_BD\!_BD_Азия\!_Хлеб на радость Bread Of Happiness 2012\Bread Of Happiness.2012.1080p.BluRay.x264.DTS-HDChina.mkv
Формат : Matroska
Версия формата : Version 2
Размер файла : 18,7 Гбайт
Продолжительность : 1 ч. 53 м.
Общий поток : 23,5 Мбит/сек
Дата кодирования : UTC 2012-09-09 22:33:35
Программа кодирования : mkvmerge v5.6.0 ('Kenya Kane') built on May 27 2012 16:44:04
Библиотека кодирования : libebml v1.2.3 + libmatroska v1.3.0
Видео
Идентификатор : 1
Формат : AVC
Формат/Информация : Advanced Video Codec
Профиль формата : High@L4.1
Настройки формата : CABAC / 4 Ref Frames
Параметр CABAC формата : Да
Параметр RefFrames формата : 4 кадра
Идентификатор кодека : V_MPEG4/ISO/AVC
Продолжительность : 1 ч. 53 м.
Битрейт : 22,0 Мбит/сек
Ширина : 1920 пикселей
Высота : 1038 пикселей
Соотношение сторон : 1,85:1
Режим частоты кадров : Постоянный
Частота кадров : 23,976 (24000/1001) кадра/сек
Цветовое пространство : YUV
Субдискретизация насыщенности : 4:2:0
Битовая глубина : 8 бит
Тип развёртки : Прогрессивная
Бит/(Пиксели*Кадры) : 0.460
Размер потока : 17,1 Гбайт (92%)
Библиотека кодирования : x264 core 120 r2164 da19765
Настройки программы : cabac=1 / ref=4 / deblock=1:-2:-2 / analyse=0x3:0x133 / me=tesa / subme=10 / psy=1 / psy_rd=0.40:0.00 / mixed_ref=1 / me_range=24 / chroma_me=1 / trellis=2 / 8x8dct=1 / cqm=0 / deadzone=21,11 / fast_pskip=1 / chroma_qp_offset=-2 / threads=12 / sliced_threads=0 / nr=0 / decimate=0 / interlaced=0 / bluray_compat=0 / constrained_intra=0 / bframes=8 / b_pyramid=2 / b_adapt=2 / b_bias=0 / direct=3 / weightb=1 / open_gop=0 / weightp=2 / keyint=300 / keyint_min=2 / scenecut=40 / intra_refresh=0 / rc_lookahead=60 / rc=2pass / mbtree=1 / bitrate=22000 / ratetol=1.0 / qcomp=0.70 / qpmin=0 / qpmax=69 / qpstep=4 / cplxblur=20.0 / qblur=0.5 / vbv_maxrate=50000 / vbv_bufsize=45000 / nal_hrd=none / ip_ratio=1.40 / aq=2:1.30
Язык : English
Default : Да
Forced : Нет
Аудио
Идентификатор : 2
Формат : DTS
Формат/Информация : Digital Theater Systems
Идентификатор кодека : A_DTS
Продолжительность : 1 ч. 53 м.
Вид битрейта : Постоянный
Битрейт : 1509 Кбит/сек
Каналы : 2 канала
Расположение каналов : Front: L R
Частота : 48,0 КГц
Частота кадров : 93,750 кадра/сек (512 SPF)
Битовая глубина : 24 бит
Метод сжатия : С потерями
Размер потока : 1,20 Гбайт (6%)
Язык : Japanese
Default : Да
Forced : Нет
Меню
00:00:00.000 : en:Chapter 01
00:04:51.124 : en:Chapter 02
00:10:07.940 : en:Chapter 03
00:16:43.669 : en:Chapter 04
00:22:49.659 : en:Chapter 05
00:29:27.849 : en:Chapter 06
00:37:13.230 : en:Chapter 07
00:43:53.631 : en:Chapter 08
00:50:12.134 : en:Chapter 09
00:54:30.433 : en:Chapter 10
01:03:32.683 : en:Chapter 11
01:14:05.065 : en:Chapter 12
01:23:16.449 : en:Chapter 13
01:33:21.554 : en:Chapter 14
01:40:58.177 : en:Chapter 15
01:47:55.886 : en:Chapter 16
01:53:54.494 : en:Chapter 17
[torrents24.ru].t64982.torrent 
Торрент: Зарегистрирован [ 2018-12-06 16:55 ] · 9E5B3E703E4C09B9DA7791FA4D03ABC08D67F81A

Скачать .torrent

Скачать

48 KB

Статус: проверено
Скачан: 0 раз
Размер: 18,83 GB

Профиль [ЛС]
Показать сообщения:    

Текущее время: 19-Дек 18:58

Часовой пояс: UTC + 3



Вы не можете начинать темы
Вы не можете отвечать на сообщения
Вы не можете редактировать свои сообщения
Вы не можете удалять свои сообщения
Вы не можете голосовать в опросах
Вы не можете прикреплять файлы к сообщениям
Вы можете скачивать файлы