Статистика раздачи
Размер:  668 MB   |    Зарегистрирован:  13 дней   |    Скачан:  1 раз

Полного источника не было: 8 часов

 
   
 
 

GEEP ®

Пол:
Не указан
Стаж:
10 месяцев 11 дней
Сообщений:
801

Stand Up. Концерт Нурлана Сабурова
Дата/Год выпуска: 02.12.2018
Страна: Россия
Жанр: ТВ-шоу, юмор
Продолжительность: 00:46:42
Перевод: Не требуется
Телеканал: ТНТ
Описание: Первый сольный стендап концерт Нурлана Сабурова на телевидении. Впервые зрители увидят абсолютно новые монологи от Нурлана Сабурова в отдельном большом концерте. Нурлан расскажет о своих выступлениях в регионах. Как там следят за законами, знают ли, что такое телеграм. А также о случаях из детства и многое другое.
Без рекламы.
Качество: WEB-DLRip
Формат: AVI
Видео: 720x400 (1.80:1), 25 fps, XviD build 73 ~1798 kbps avg, 0.25 bit/pixel
Аудио: 48 kHz, AC3 Dolby Digital, 2/0 (L,R) ch, ~192 kbps

MediaInfo

General
Complete name : D:\Stand.Up.Kontsert.Nurlana.Saburova.2018.WEB-DLRip.avi
Format : AVI
Format/Info : Audio Video Interleave
File size : 668 MiB
Duration : 46 min 42 s
Overall bit rate : 2 000 kb/s
Writing application : VirtualDubMod 1.5.10.3 | www.virtualdub-fr.org || (build 2550/release)
Writing library : VirtualDubMod build 2550/release
Video
ID : 0
Format : MPEG-4 Visual
Format profile : Advanced Simple@L5
Format settings : BVOP1
Format settings, BVOP : 1
Format settings, QPel : No
Format settings, GMC : No warppoints
Format settings, Matrix : Default (MPEG)
Codec ID : XVID
Codec ID/Hint : XviD
Duration : 46 min 42 s
Bit rate : 1 798 kb/s
Width : 720 pixels
Height : 400 pixels
Display aspect ratio : 16:9
Frame rate : 25.000 FPS
Color space : YUV
Chroma subsampling : 4:2:0
Bit depth : 8 bits
Scan type : Progressive
Compression mode : Lossy
Bits/(Pixel*Frame) : 0.250
Stream size : 601 MiB (90%)
Writing library : XviD 73
Audio
ID : 1
Format : AC-3
Format/Info : Audio Coding 3
Codec ID : 2000
Duration : 46 min 42 s
Bit rate mode : Constant
Bit rate : 192 kb/s
Channel(s) : 2 channels
Channel positions : Front: L R
Sampling rate : 48.0 kHz
Frame rate : 31.250 FPS (1536 SPF)
Bit depth : 16 bits
Compression mode : Lossy
Stream size : 64.1 MiB (10%)
Alignment : Split accross interleaves
Interleave, duration : 40 ms (1.00 video frame)
Interleave, preload duratio : 500 ms
Service kind : Complete Main

Скриншоты


[torrents24.ru].t64974.torrent 
Торрент: Зарегистрирован [ 2018-12-06 16:55 ] · 1605219DD15F08CA78C0E62BFEA358DBC00C1C57

Скачать .torrent

Скачать

14 KB

Статус: проверено
Скачан: 1 раз
Размер: 668 MB

Профиль [ЛС]
Показать сообщения:    

Текущее время: 19-Дек 18:31

Часовой пояс: UTC + 3



Вы не можете начинать темы
Вы не можете отвечать на сообщения
Вы не можете редактировать свои сообщения
Вы не можете удалять свои сообщения
Вы не можете голосовать в опросах
Вы не можете прикреплять файлы к сообщениям
Вы можете скачивать файлы