Статистика раздачи
Размер:  2,58 GB   |    Зарегистрирован:  14 дней   |    Скачан:  0 раз

Полного источника не было: Никогда

 
   
 
 

Differеnt ®

Пол:
Не указан
Стаж:
10 месяцев 15 дней
Сообщений:
745

Erik Satie - Tout Satie ! Erik Satie • Complete Edition Жанр: Classical, Romantic, Impressionist, Opera
Страна-производитель диска: Europe
Год издания диска: 2015
Издатель (лейбл): Erato, Warner Classics
Номер по каталогу: 0825646047963
Аудиокодек: FLAC
Тип рипа: tracks+.cue
Битрейт аудио: lossless
Продолжительность: 12:26:15
Источник: собственный рип
Наличие сканов в содержимом раздачи: нет

CD 1 - Orchestral Works & Ballets

Продолжительность: 01:19:34

Треклист

01. Sonnerie pour réveiller le bon gros Roi des Singes (lequel ne dort toujours que d'un œil) (fanfare pour deux trompettes, 1921)
02. Gymnopédie No. 1 (1888/1897)
03. Gymnopédie No. 2 (1888/1897)
04. Le Picadilly (ragtime)
05. Gnossienne No. 3
En habit de cheval - 1911
06. I. Choral
07. II. Fugue litanique
08. III. Autre choral
09. IV. Fugue de papier
Cinq grimaces pour 'Un songe d'une nuit d'été' - 1915/1928
10. I. Modéré
11. II. Peu vite
12. III. Modéré
13. IV. Temps de marche
14. V. Modéré
La Belle excentrique - 1920
15. I. Grande ritournelle
16. II. Marche franco-lunaire
17. III. Valse du mystérieux baiser dans l'œil
18. IV. Cancan grand-mondain
Musiques d'ameublement - 1918
19. I. Tenture de cabinet préfectoral
20. II. Tapisserie en fer forgé
21. III. Carrelage phonique
Relâche (musique pour le ballet instantanéiste) - 1924
Première partie
22. I. Ouverturette
23. II. Projectionette
24. III. Rideau - Entrée de la femme
25. IV. Musique
26. V. Entrée de Borlin
27. VI. Danse de la porte tournante
28. VII. Entrée des hommes
29. VIII. Danse des hommes
30. IX. Danse de la femme
31. X. Final
Deuxième partie
32. I. Musique de rentrée
33. II. Rentrée des hommes
34. III. Rentrée des femmes
35. IV. Les hommes se dévêtissent
36. V. Danse de Borlin et de la femme
37. VI. Les hommes regagnent leur place
38. VII. Danse de la brouette
39. VIII. Danse de la couronne
40. IX. Le danseur
41. X. La femme
42. XI. La queue du chien
Mercure (poses plastiques en trois tableaux) - 1924
Premier tableau
43. I. Ouverture
44. II. La nuit
45. III. Danse de tendresse
46. IV. Signes du zodiaque
47. V. Entrée et danse de Mercure
Deuxième tableau
48. I. Danse des grâces
49. II. Bain des grâces
50. III. Fuite de Mercure - Colère de Cerbère
Troisième tableau
51. I. Polka des lettres
52. II. Nouvelle danse
53. III. Le chaos
54. IV. Final
55. Les Pantins dansent - Presque lent (1913)

Лог создания рипа

Exact Audio Copy V1.3 from 2. September 2016
EAC extraction logfile from 26. October 2018, 20:40
Erik Satie / Tout Satie ! Erik Satie • Complete Edition
Used drive : PLEXTOR DVDR PX-891SA Adapter: 1 ID: 0
Read mode : Secure
Utilize accurate stream : Yes
Defeat audio cache : Yes
Make use of C2 pointers : No
Read offset correction : 6
Overread into Lead-In and Lead-Out : No
Fill up missing offset samples with silence : Yes
Delete leading and trailing silent blocks : No
Null samples used in CRC calculations : Yes
Used interface : Native Win32 interface for Win NT & 2000
Gap handling : Appended to previous track
Used output format : User Defined Encoder
Selected bitrate : 1024 kBit/s
Quality : High
Add ID3 tag : No
Command line compressor : C:\Program Files (x86)\Exact Audio Copy\FLAC\FLAC.EXE
Additional command line options : -8 -V -T "ARTIST=%artist%" -T "TITLE=%title%" -T "ALBUM=%albumtitle%" -T "DATE=%year%" -T "TRACKNUMBER=%tracknr%" -T "GENRE=%genre%" -T "COMMENT=%comment%" -T "BAND=%albuminterpret%" -T "ALBUMARTIST=%albuminterpret%" -T "COMPOSER=%composer%" %haslyrics%--tag-from-file=LYRICS="%lyricsfile%"%haslyrics% -T "DISCNUMBER=%cdnumber%" -T "TOTALDISCS=%totalcds%" -T "TOTALTRACKS=%numtracks%" %hascover%--picture="%coverfile%"%hascover% %source% -o %dest%
TOC of the extracted CD
Track | Start | Length | Start sector | End sector
---------------------------------------------------------
1 | 0:00.00 | 1:04.57 | 0 | 4856
2 | 1:04.57 | 3:06.69 | 4857 | 18875
3 | 4:11.51 | 4:12.12 | 18876 | 37787
4 | 8:23.63 | 1:23.65 | 37788 | 44077
5 | 9:47.53 | 2:46.50 | 44078 | 56577
6 | 12:34.28 | 0:47.43 | 56578 | 60145
7 | 13:21.71 | 2:51.40 | 60146 | 73010
8 | 16:13.36 | 0:54.68 | 73011 | 77128
9 | 17:08.29 | 2:33.28 | 77129 | 88631
10 | 19:41.57 | 0:48.16 | 88632 | 92247
11 | 20:29.73 | 0:31.62 | 92248 | 94634
12 | 21:01.60 | 0:29.03 | 94635 | 96812
13 | 21:30.63 | 0:22.21 | 96813 | 98483
14 | 21:53.09 | 1:06.74 | 98484 | 103507
15 | 23:00.08 | 1:56.41 | 103508 | 112248
16 | 24:56.49 | 1:40.58 | 112249 | 119806
17 | 26:37.32 | 2:41.09 | 119807 | 131890
18 | 29:18.41 | 1:59.15 | 131891 | 140830
19 | 31:17.56 | 6:10.34 | 140831 | 168614
20 | 37:28.15 | 3:06.48 | 168615 | 182612
21 | 40:34.63 | 2:34.17 | 182613 | 194179
22 | 43:09.05 | 1:11.51 | 194180 | 199555
23 | 44:20.56 | 0:46.48 | 199556 | 203053
24 | 45:07.29 | 1:22.09 | 203054 | 209212
25 | 46:29.38 | 0:35.47 | 209213 | 211884
26 | 47:05.10 | 0:39.43 | 211885 | 214852
27 | 47:44.53 | 1:02.01 | 214853 | 219503
28 | 48:46.54 | 0:42.14 | 219504 | 222667
29 | 49:28.68 | 0:33.38 | 222668 | 225180
30 | 50:02.31 | 1:14.11 | 225181 | 230741
31 | 51:16.42 | 1:10.49 | 230742 | 236040
32 | 52:27.16 | 0:40.38 | 236041 | 239078
33 | 53:07.54 | 1:09.57 | 239079 | 244310
34 | 54:17.36 | 2:19.21 | 244311 | 254756
35 | 56:36.57 | 0:36.39 | 254757 | 257495
36 | 57:13.21 | 0:57.73 | 257496 | 261843
37 | 58:11.19 | 0:45.27 | 261844 | 265245
38 | 58:56.46 | 0:56.58 | 265246 | 269503
39 | 59:53.29 | 0:48.36 | 269504 | 273139
40 | 60:41.65 | 0:48.66 | 273140 | 276805
41 | 61:30.56 | 1:21.21 | 276806 | 282901
42 | 62:52.02 | 0:39.28 | 282902 | 285854
43 | 63:31.30 | 1:08.57 | 285855 | 291011
44 | 64:40.12 | 1:01.39 | 291012 | 295625
45 | 65:41.51 | 1:59.70 | 295626 | 304620
46 | 67:41.46 | 0:50.10 | 304621 | 308380
47 | 68:31.56 | 1:13.54 | 308381 | 313909
48 | 69:45.35 | 1:07.49 | 313910 | 318983
49 | 70:53.09 | 1:12.11 | 318984 | 324394
50 | 72:05.20 | 0:43.01 | 324395 | 327620
51 | 72:48.21 | 1:10.27 | 327621 | 332897
52 | 73:58.48 | 1:38.73 | 332898 | 340320
53 | 75:37.46 | 0:33.10 | 340321 | 342805
54 | 76:10.56 | 1:12.37 | 342806 | 348242
55 | 77:23.18 | 2:11.53 | 348243 | 358120
Track 1
Filename H:\Torrents\Satie, Erik\Satie, Erik (2015) [0825646047963] Tout Satie ! Erik Satie • Complete Edition\CD 1 - Orchestral Works & Ballets\01. Sonnerie pour réveiller le bon gros Roi des Singes.wav
Pre-gap length 0:00:02.00
Peak level 48.6 %
Extraction speed 0.7 X
Track quality 99.8 %
Test CRC 4678A6D8
Copy CRC 4678A6D8
Accurately ripped (confidence 14) [F2371667] (AR v2)
Copy OK
Track 2
Filename H:\Torrents\Satie, Erik\Satie, Erik (2015) [0825646047963] Tout Satie ! Erik Satie • Complete Edition\CD 1 - Orchestral Works & Ballets\02. Gymnopédie No. 1.wav
Peak level 15.2 %
Extraction speed 1.4 X
Track quality 99.9 %
Test CRC 4629E68A
Copy CRC 4629E68A
Accurately ripped (confidence 13) [40E113CB] (AR v2)
Copy OK
Track 3
Filename H:\Torrents\Satie, Erik\Satie, Erik (2015) [0825646047963] Tout Satie ! Erik Satie • Complete Edition\CD 1 - Orchestral Works & Ballets\03. Gymnopédie No. 2.wav
Peak level 17.1 %
Extraction speed 2.4 X
Track quality 100.0 %
Test CRC AF7529BC
Copy CRC AF7529BC
Accurately ripped (confidence 13) [AEE3238B] (AR v2)
Copy OK
Track 4
Filename H:\Torrents\Satie, Erik\Satie, Erik (2015) [0825646047963] Tout Satie ! Erik Satie • Complete Edition\CD 1 - Orchestral Works & Ballets\04. Le Picadilly.wav
Peak level 56.3 %
Extraction speed 2.0 X
Track quality 100.0 %
Test CRC 336B9573
Copy CRC 336B9573
Accurately ripped (confidence 13) [0996646E] (AR v2)
Copy OK
Track 5
Filename H:\Torrents\Satie, Erik\Satie, Erik (2015) [0825646047963] Tout Satie ! Erik Satie • Complete Edition\CD 1 - Orchestral Works & Ballets\05. Gnossienne No. 3.wav
Peak level 24.8 %
Extraction speed 1.6 X
Track quality 99.9 %
Test CRC 6E632959
Copy CRC 6E632959
Accurately ripped (confidence 13) [D54F84D4] (AR v2)
Copy OK
Track 6
Filename H:\Torrents\Satie, Erik\Satie, Erik (2015) [0825646047963] Tout Satie ! Erik Satie • Complete Edition\CD 1 - Orchestral Works & Ballets\06. En habit de cheval - I. Choral.wav
Peak level 86.8 %
Extraction speed 1.7 X
Track quality 100.0 %
Test CRC A4C5A035
Copy CRC A4C5A035
Accurately ripped (confidence 13) [7BAD05AB] (AR v2)
Copy OK
Track 7
Filename H:\Torrents\Satie, Erik\Satie, Erik (2015) [0825646047963] Tout Satie ! Erik Satie • Complete Edition\CD 1 - Orchestral Works & Ballets\07. En habit de cheval - II. Fugue litanique.wav
Peak level 55.6 %
Extraction speed 2.6 X
Track quality 100.0 %
Test CRC 7EEB9E8A
Copy CRC 7EEB9E8A
Accurately ripped (confidence 13) [4C56F950] (AR v2)
Copy OK
Track 8
Filename H:\Torrents\Satie, Erik\Satie, Erik (2015) [0825646047963] Tout Satie ! Erik Satie • Complete Edition\CD 1 - Orchestral Works & Ballets\08. En habit de cheval - III. Autre choral.wav
Peak level 16.4 %
Extraction speed 1.9 X
Track quality 100.0 %
Test CRC CBBAD439
Copy CRC CBBAD439
Accurately ripped (confidence 13) [D19B1D97] (AR v2)
Copy OK
Track 9
Filename H:\Torrents\Satie, Erik\Satie, Erik (2015) [0825646047963] Tout Satie ! Erik Satie • Complete Edition\CD 1 - Orchestral Works & Ballets\09. En habit de cheval - IV. Fugue de papier.wav
Peak level 53.3 %
Extraction speed 1.7 X
Track quality 99.9 %
Test CRC 87F4378F
Copy CRC 87F4378F
Accurately ripped (confidence 13) [0A92D510] (AR v2)
Copy OK
Track 10
Filename H:\Torrents\Satie, Erik\Satie, Erik (2015) [0825646047963] Tout Satie ! Erik Satie • Complete Edition\CD 1 - Orchestral Works & Ballets\10. Cinq grimaces pour ''Un songe d'une nuit d'été'' - I. Modéré.wav
Peak level 81.5 %
Extraction speed 1.8 X
Track quality 100.0 %
Test CRC 2DA871A6
Copy CRC 2DA871A6
Accurately ripped (confidence 13) [CEFB9FBF] (AR v2)
Copy OK
Track 11
Filename H:\Torrents\Satie, Erik\Satie, Erik (2015) [0825646047963] Tout Satie ! Erik Satie • Complete Edition\CD 1 - Orchestral Works & Ballets\11. Cinq grimaces pour ''Un songe d'une nuit d'été'' - II. Peu vite.wav
Peak level 69.7 %
Extraction speed 1.6 X
Track quality 100.0 %
Test CRC 0A3991BC
Copy CRC 0A3991BC
Accurately ripped (confidence 13) [4E76FFA9] (AR v2)
Copy OK
Track 12
Filename H:\Torrents\Satie, Erik\Satie, Erik (2015) [0825646047963] Tout Satie ! Erik Satie • Complete Edition\CD 1 - Orchestral Works & Ballets\12. Cinq grimaces pour ''Un songe d'une nuit d'été'' - III. Modéré.wav
Peak level 35.9 %
Extraction speed 1.5 X
Track quality 100.0 %
Test CRC CD9D6DD0
Copy CRC CD9D6DD0
Accurately ripped (confidence 13) [E4BCA384] (AR v2)
Copy OK
Track 13
Filename H:\Torrents\Satie, Erik\Satie, Erik (2015) [0825646047963] Tout Satie ! Erik Satie • Complete Edition\CD 1 - Orchestral Works & Ballets\13. Cinq grimaces pour ''Un songe d'une nuit d'été'' - IV. Temps de marche.wav
Peak level 34.2 %
Extraction speed 1.3 X
Track quality 100.0 %
Test CRC A23C7670
Copy CRC A23C7670
Accurately ripped (confidence 13) [283AA279] (AR v2)
Copy OK
Track 14
Filename H:\Torrents\Satie, Erik\Satie, Erik (2015) [0825646047963] Tout Satie ! Erik Satie • Complete Edition\CD 1 - Orchestral Works & Ballets\14. Cinq grimaces pour ''Un songe d'une nuit d'été'' - V. Modéré.wav
Peak level 41.7 %
Extraction speed 2.2 X
Track quality 100.0 %
Test CRC 316F14A2
Copy CRC 316F14A2
Accurately ripped (confidence 13) [FD181D35] (AR v2)
Copy OK
Track 15
Filename H:\Torrents\Satie, Erik\Satie, Erik (2015) [0825646047963] Tout Satie ! Erik Satie • Complete Edition\CD 1 - Orchestral Works & Ballets\15. La Belle excentrique - I. Grande ritournelle.wav
Pre-gap length 0:00:04.43
Peak level 69.2 %
Extraction speed 1.6 X
Track quality 99.9 %
Test CRC 0DA5DD9D
Copy CRC 0DA5DD9D
Accurately ripped (confidence 13) [FB5F9615] (AR v2)
Copy OK
Track 16
Filename H:\Torrents\Satie, Erik\Satie, Erik (2015) [0825646047963] Tout Satie ! Erik Satie • Complete Edition\CD 1 - Orchestral Works & Ballets\16. La Belle excentrique - II. Marche franco-lunaire.wav
Peak level 79.2 %
Extraction speed 2.6 X
Track quality 100.0 %
Test CRC A5D04D12
Copy CRC A5D04D12
Accurately ripped (confidence 13) [27ED4EB9] (AR v2)
Copy OK
Track 17
Filename H:\Torrents\Satie, Erik\Satie, Erik (2015) [0825646047963] Tout Satie ! Erik Satie • Complete Edition\CD 1 - Orchestral Works & Ballets\17. La Belle excentrique - III. Valse du mystérieux baiser dans l'œil.wav
Peak level 71.4 %
Extraction speed 3.0 X
Track quality 100.0 %
Test CRC D2D69DF2
Copy CRC D2D69DF2
Accurately ripped (confidence 13) [1F780339] (AR v2)
Copy OK
Track 18
Filename H:\Torrents\Satie, Erik\Satie, Erik (2015) [0825646047963] Tout Satie ! Erik Satie • Complete Edition\CD 1 - Orchestral Works & Ballets\18. La Belle excentrique - IV. Cancan grand-mondain.wav
Peak level 75.7 %
Extraction speed 1.7 X
Track quality 99.9 %
Test CRC F5B8AD16
Copy CRC F5B8AD16
Accurately ripped (confidence 13) [02A31CA2] (AR v2)
Copy OK
Track 19
Filename H:\Torrents\Satie, Erik\Satie, Erik (2015) [0825646047963] Tout Satie ! Erik Satie • Complete Edition\CD 1 - Orchestral Works & Ballets\19. Musiques d'ameublement - I. Tenture de cabinet préfectoral.wav
Peak level 96.7 %
Extraction speed 3.6 X
Track quality 100.0 %
Test CRC 3EF408AA
Copy CRC 3EF408AA
Accurately ripped (confidence 13) [4C3B1D4E] (AR v2)
Copy OK
Track 20
Filename H:\Torrents\Satie, Erik\Satie, Erik (2015) [0825646047963] Tout Satie ! Erik Satie • Complete Edition\CD 1 - Orchestral Works & Ballets\20. Musiques d'ameublement - II. Tapisserie en fer forgé.wav
Peak level 19.4 %
Extraction speed 3.4 X
Track quality 100.0 %
Test CRC 269EEC97
Copy CRC 269EEC97
Accurately ripped (confidence 13) [9313BCB0] (AR v2)
Copy OK
Track 21
Filename H:\Torrents\Satie, Erik\Satie, Erik (2015) [0825646047963] Tout Satie ! Erik Satie • Complete Edition\CD 1 - Orchestral Works & Ballets\21. Musiques d'ameublement - III. Carrelage phonique.wav
Peak level 18.7 %
Extraction speed 3.4 X
Track quality 100.0 %
Test CRC 000EC31D
Copy CRC 000EC31D
Accurately ripped (confidence 13) [83046727] (AR v2)
Copy OK
Track 22
Filename H:\Torrents\Satie, Erik\Satie, Erik (2015) [0825646047963] Tout Satie ! Erik Satie • Complete Edition\CD 1 - Orchestral Works & Ballets\22. Relâche - Première partie - I. Ouverturette.wav
Peak level 49.2 %
Extraction speed 1.4 X
Track quality 99.8 %
Test CRC 63FE5F94
Copy CRC 63FE5F94
Accurately ripped (confidence 13) [EBC07027] (AR v2)
Copy OK
Track 23
Filename H:\Torrents\Satie, Erik\Satie, Erik (2015) [0825646047963] Tout Satie ! Erik Satie • Complete Edition\CD 1 - Orchestral Works & Ballets\23. Relâche - Première partie - II. Projectionette.wav
Peak level 41.2 %
Extraction speed 2.3 X
Track quality 100.0 %
Test CRC ED4FFBF7
Copy CRC ED4FFBF7
Accurately ripped (confidence 13) [2EED2855] (AR v2)
Copy OK
Track 24
Filename H:\Torrents\Satie, Erik\Satie, Erik (2015) [0825646047963] Tout Satie ! Erik Satie • Complete Edition\CD 1 - Orchestral Works & Ballets\24. Relâche - Première partie - III. Rideau - Entrée de la femme.wav
Peak level 22.3 %
Extraction speed 3.0 X
Track quality 100.0 %
Test CRC 8A1E4244
Copy CRC 8A1E4244
Accurately ripped (confidence 13) [4644B9E5] (AR v2)
Copy OK
Track 25
Filename H:\Torrents\Satie, Erik\Satie, Erik (2015) [0825646047963] Tout Satie ! Erik Satie • Complete Edition\CD 1 - Orchestral Works & Ballets\25. Relâche - Première partie - IV. Musique.wav
Peak level 23.0 %
Extraction speed 2.1 X
Track quality 100.0 %
Test CRC 94C6932F
Copy CRC 94C6932F
Accurately ripped (confidence 13) [6EC0884D] (AR v2)
Copy OK
Track 26
Filename H:\Torrents\Satie, Erik\Satie, Erik (2015) [0825646047963] Tout Satie ! Erik Satie • Complete Edition\CD 1 - Orchestral Works & Ballets\26. Relâche - Première partie - V. Entrée de Borlin.wav
Peak level 53.7 %
Extraction speed 2.3 X
Track quality 100.0 %
Test CRC 6494BBEA
Copy CRC 6494BBEA
Accurately ripped (confidence 13) [758450EA] (AR v2)
Copy OK
Track 27
Filename H:\Torrents\Satie, Erik\Satie, Erik (2015) [0825646047963] Tout Satie ! Erik Satie • Complete Edition\CD 1 - Orchestral Works & Ballets\27. Relâche - Première partie - VI. Danse de la porte tournante.wav
Peak level 48.2 %
Extraction speed 2.8 X
Track quality 100.0 %
Test CRC AE7234F9
Copy CRC AE7234F9
Accurately ripped (confidence 13) [907D0ED5] (AR v2)
Copy OK
Track 28
Filename H:\Torrents\Satie, Erik\Satie, Erik (2015) [0825646047963] Tout Satie ! Erik Satie • Complete Edition\CD 1 - Orchestral Works & Ballets\28. Relâche - Première partie - VII. Entrée des hommes.wav
Peak level 58.8 %
Extraction speed 2.3 X
Track quality 100.0 %
Test CRC A2DEC564
Copy CRC A2DEC564
Accurately ripped (confidence 13) [9395DDB9] (AR v2)
Copy OK
Track 29
Filename H:\Torrents\Satie, Erik\Satie, Erik (2015) [0825646047963] Tout Satie ! Erik Satie • Complete Edition\CD 1 - Orchestral Works & Ballets\29. Relâche - Première partie - VIII. Danse des hommes.wav
Peak level 65.8 %
Extraction speed 0.8 X
Track quality 99.6 %
Test CRC 6821D5C1
Copy CRC 6821D5C1
Accurately ripped (confidence 13) [A33785E2] (AR v2)
Copy OK
Track 30
Filename H:\Torrents\Satie, Erik\Satie, Erik (2015) [0825646047963] Tout Satie ! Erik Satie • Complete Edition\CD 1 - Orchestral Works & Ballets\30. Relâche - Première partie - IX. Danse de la femme.wav
Peak level 39.5 %
Extraction speed 3.0 X
Track quality 100.0 %
Test CRC 92084535
Copy CRC 92084535
Accurately ripped (confidence 13) [1E774CD3] (AR v2)
Copy OK
Track 31
Filename H:\Torrents\Satie, Erik\Satie, Erik (2015) [0825646047963] Tout Satie ! Erik Satie • Complete Edition\CD 1 - Orchestral Works & Ballets\31. Relâche - Première partie - X. Final.wav
Peak level 73.0 %
Extraction speed 3.0 X
Track quality 100.0 %
Test CRC 85BB8C13
Copy CRC 85BB8C13
Accurately ripped (confidence 13) [8A5FA87F] (AR v2)
Copy OK
Track 32
Filename H:\Torrents\Satie, Erik\Satie, Erik (2015) [0825646047963] Tout Satie ! Erik Satie • Complete Edition\CD 1 - Orchestral Works & Ballets\32. Relâche - Deuxième partie - I. Musique de rentrée.wav
Peak level 45.9 %
Extraction speed 1.0 X
Track quality 99.7 %
Test CRC A06F792C
Copy CRC A06F792C
Accurately ripped (confidence 13) [ACD0EECB] (AR v2)
Copy OK
Track 33
Filename H:\Torrents\Satie, Erik\Satie, Erik (2015) [0825646047963] Tout Satie ! Erik Satie • Complete Edition\CD 1 - Orchestral Works & Ballets\33. Relâche - Deuxième partie - II. Rentrée des hommes.wav
Peak level 84.4 %
Extraction speed 2.9 X
Track quality 100.0 %
Test CRC 880A4B2E
Copy CRC 880A4B2E
Accurately ripped (confidence 13) [0A2BE81C] (AR v2)
Copy OK
Track 34
Filename H:\Torrents\Satie, Erik\Satie, Erik (2015) [0825646047963] Tout Satie ! Erik Satie • Complete Edition\CD 1 - Orchestral Works & Ballets\34. Relâche - Deuxième partie - III. Rentrée des femmes.wav
Peak level 36.4 %
Extraction speed 3.6 X
Track quality 100.0 %
Test CRC 6DBAE8FF
Copy CRC 6DBAE8FF
Accurately ripped (confidence 13) [BB7FC49D] (AR v2)
Copy OK
Track 35
Filename H:\Torrents\Satie, Erik\Satie, Erik (2015) [0825646047963] Tout Satie ! Erik Satie • Complete Edition\CD 1 - Orchestral Works & Ballets\35. Relâche - Deuxième partie - IV. Les hommes se dévêtissent.wav
Peak level 28.1 %
Extraction speed 0.9 X
Track quality 99.7 %
Test CRC 0354A4FF
Copy CRC 0354A4FF
Accurately ripped (confidence 13) [99F49970] (AR v2)
Copy OK
Track 36
Filename H:\Torrents\Satie, Erik\Satie, Erik (2015) [0825646047963] Tout Satie ! Erik Satie • Complete Edition\CD 1 - Orchestral Works & Ballets\36. Relâche - Deuxième partie - V. Danse de Borlin et de la femme.wav
Peak level 41.9 %
Extraction speed 2.9 X
Track quality 100.0 %
Test CRC A378B0FF
Copy CRC A378B0FF
Accurately ripped (confidence 13) [8562BA60] (AR v2)
Copy OK
Track 37
Filename H:\Torrents\Satie, Erik\Satie, Erik (2015) [0825646047963] Tout Satie ! Erik Satie • Complete Edition\CD 1 - Orchestral Works & Ballets\37. Relâche - Deuxième partie - VI. Les hommes regagnent leur place.wav
Peak level 51.9 %
Extraction speed 2.6 X
Track quality 100.0 %
Test CRC 44FC7F03
Copy CRC 44FC7F03
Accurately ripped (confidence 13) [53F3B75F] (AR v2)
Copy OK
Track 38
Filename H:\Torrents\Satie, Erik\Satie, Erik (2015) [0825646047963] Tout Satie ! Erik Satie • Complete Edition\CD 1 - Orchestral Works & Ballets\38. Relâche - Deuxième partie - VII. Danse de la brouette.wav
Peak level 35.1 %
Extraction speed 1.4 X
Track quality 99.8 %
Test CRC 3F3AC4B5
Copy CRC 3F3AC4B5
Accurately ripped (confidence 13) [FC52A9F7] (AR v2)
Copy OK
Track 39
Filename H:\Torrents\Satie, Erik\Satie, Erik (2015) [0825646047963] Tout Satie ! Erik Satie • Complete Edition\CD 1 - Orchestral Works & Ballets\39. Relâche - Deuxième partie - VIII. Danse de la couronne.wav
Peak level 68.3 %
Extraction speed 1.2 X
Track quality 99.7 %
Test CRC 6AC2B30D
Copy CRC 6AC2B30D
Accurately ripped (confidence 13) [EE59B349] (AR v2)
Copy OK
Track 40
Filename H:\Torrents\Satie, Erik\Satie, Erik (2015) [0825646047963] Tout Satie ! Erik Satie • Complete Edition\CD 1 - Orchestral Works & Ballets\40. Relâche - Deuxième partie - IX. Le danseur.wav
Peak level 62.9 %
Extraction speed 2.6 X
Track quality 100.0 %
Test CRC EB50444B
Copy CRC EB50444B
Accurately ripped (confidence 13) [7BED335B] (AR v2)
Copy OK
Track 41
Filename H:\Torrents\Satie, Erik\Satie, Erik (2015) [0825646047963] Tout Satie ! Erik Satie • Complete Edition\CD 1 - Orchestral Works & Ballets\41. Relâche - Deuxième partie - X. La femme.wav
Peak level 16.6 %
Extraction speed 3.2 X
Track quality 100.0 %
Test CRC C9B5752A
Copy CRC C9B5752A
Accurately ripped (confidence 13) [BDBC8741] (AR v2)
Copy OK
Track 42
Filename H:\Torrents\Satie, Erik\Satie, Erik (2015) [0825646047963] Tout Satie ! Erik Satie • Complete Edition\CD 1 - Orchestral Works & Ballets\42. Relâche - Deuxième partie - XI. La queue du chien.wav
Peak level 77.3 %
Extraction speed 2.5 X
Track quality 100.0 %
Test CRC 33AFA3F6
Copy CRC 33AFA3F6
Accurately ripped (confidence 13) [F7930FFF] (AR v2)
Copy OK
Track 43
Filename H:\Torrents\Satie, Erik\Satie, Erik (2015) [0825646047963] Tout Satie ! Erik Satie • Complete Edition\CD 1 - Orchestral Works & Ballets\43. Mercure - Premier tableau - I. Ouverture.wav
Peak level 64.6 %
Extraction speed 3.2 X
Track quality 100.0 %
Test CRC 324B635B
Copy CRC 324B635B
Accurately ripped (confidence 13) [19923C2E] (AR v2)
Copy OK
Track 44
Filename H:\Torrents\Satie, Erik\Satie, Erik (2015) [0825646047963] Tout Satie ! Erik Satie • Complete Edition\CD 1 - Orchestral Works & Ballets\44. Mercure - Premier tableau - II. La nuit.wav
Peak level 28.8 %
Extraction speed 3.1 X
Track quality 100.0 %
Test CRC 9873F1B0
Copy CRC 9873F1B0
Accurately ripped (confidence 13) [2EB8EBEA] (AR v2)
Copy OK
Track 45
Filename H:\Torrents\Satie, Erik\Satie, Erik (2015) [0825646047963] Tout Satie ! Erik Satie • Complete Edition\CD 1 - Orchestral Works & Ballets\45. Mercure - Premier tableau - III. Danse de tendresse.wav
Peak level 48.1 %
Extraction speed 3.8 X
Track quality 100.0 %
Test CRC E168A59F
Copy CRC E168A59F
Accurately ripped (confidence 13) [F9071A4B] (AR v2)
Copy OK
Track 46
Filename H:\Torrents\Satie, Erik\Satie, Erik (2015) [0825646047963] Tout Satie ! Erik Satie • Complete Edition\CD 1 - Orchestral Works & Ballets\46. Mercure - Premier tableau - IV. Signes du zodiaque.wav
Peak level 30.1 %
Extraction speed 1.3 X
Track quality 99.7 %
Test CRC B5B5D83A
Copy CRC B5B5D83A
Accurately ripped (confidence 13) [D4CAA743] (AR v2)
Copy OK
Track 47
Filename H:\Torrents\Satie, Erik\Satie, Erik (2015) [0825646047963] Tout Satie ! Erik Satie • Complete Edition\CD 1 - Orchestral Works & Ballets\47. Mercure - Premier tableau - V. Entrée et danse de Mercure.wav
Peak level 68.5 %
Extraction speed 3.2 X
Track quality 100.0 %
Test CRC 8FBB18A5
Copy CRC 8FBB18A5
Accurately ripped (confidence 13) [C7048C9F] (AR v2)
Copy OK
Track 48
Filename H:\Torrents\Satie, Erik\Satie, Erik (2015) [0825646047963] Tout Satie ! Erik Satie • Complete Edition\CD 1 - Orchestral Works & Ballets\48. Mercure - Deuxième tableau - I. Danse des grâces.wav
Peak level 57.6 %
Extraction speed 3.3 X
Track quality 100.0 %
Test CRC C379511A
Copy CRC C379511A
Accurately ripped (confidence 13) [F77D3C20] (AR v2)
Copy OK
Track 49
Filename H:\Torrents\Satie, Erik\Satie, Erik (2015) [0825646047963] Tout Satie ! Erik Satie • Complete Edition\CD 1 - Orchestral Works & Ballets\49. Mercure - Deuxième tableau - II. Bain des grâces.wav
Peak level 11.2 %
Extraction speed 3.4 X
Track quality 100.0 %
Test CRC 32C731A1
Copy CRC 32C731A1
Accurately ripped (confidence 13) [7B2036B5] (AR v2)
Copy OK
Track 50
Filename H:\Torrents\Satie, Erik\Satie, Erik (2015) [0825646047963] Tout Satie ! Erik Satie • Complete Edition\CD 1 - Orchestral Works & Ballets\50. Mercure - Deuxième tableau - III. Fuite de Mercure - Colère de Cerbère.wav
Peak level 59.6 %
Extraction speed 2.7 X
Track quality 100.0 %
Test CRC 199CBCC5
Copy CRC 199CBCC5
Accurately ripped (confidence 13) [B2A7A818] (AR v2)
Copy OK
Track 51
Filename H:\Torrents\Satie, Erik\Satie, Erik (2015) [0825646047963] Tout Satie ! Erik Satie • Complete Edition\CD 1 - Orchestral Works & Ballets\51. Mercure - Troisième tableau - I. Polka des lettres.wav
Peak level 76.2 %
Extraction speed 1.7 X
Track quality 99.8 %
Test CRC 904FA23D
Copy CRC 904FA23D
Accurately ripped (confidence 13) [FD5909E5] (AR v2)
Copy OK
Track 52
Filename H:\Torrents\Satie, Erik\Satie, Erik (2015) [0825646047963] Tout Satie ! Erik Satie • Complete Edition\CD 1 - Orchestral Works & Ballets\52. Mercure - Troisième tableau - II. Nouvelle danse.wav
Peak level 13.6 %
Extraction speed 3.7 X
Track quality 100.0 %
Test CRC C4FFE3CE
Copy CRC C4FFE3CE
Accurately ripped (confidence 13) [1CFB0172] (AR v2)
Copy OK
Track 53
Filename H:\Torrents\Satie, Erik\Satie, Erik (2015) [0825646047963] Tout Satie ! Erik Satie • Complete Edition\CD 1 - Orchestral Works & Ballets\53. Mercure - Troisième tableau - III. Le chaos.wav
Peak level 41.7 %
Extraction speed 2.4 X
Track quality 100.0 %
Test CRC 84446BAD
Copy CRC 84446BAD
Accurately ripped (confidence 13) [C795390C] (AR v2)
Copy OK
Track 54
Filename H:\Torrents\Satie, Erik\Satie, Erik (2015) [0825646047963] Tout Satie ! Erik Satie • Complete Edition\CD 1 - Orchestral Works & Ballets\54. Mercure - Troisième tableau - IV. Final.wav
Peak level 53.3 %
Extraction speed 3.4 X
Track quality 100.0 %
Test CRC 54413025
Copy CRC 54413025
Accurately ripped (confidence 13) [CF69FD8E] (AR v2)
Copy OK
Track 55
Filename H:\Torrents\Satie, Erik\Satie, Erik (2015) [0825646047963] Tout Satie ! Erik Satie • Complete Edition\CD 1 - Orchestral Works & Ballets\55. Les Pantins dansent.wav
Pre-gap length 0:00:04.48
Peak level 23.6 %
Extraction speed 4.1 X
Track quality 100.0 %
Test CRC 8649FB36
Copy CRC 8649FB36
Accurately ripped (confidence 13) [9C9C4A19] (AR v2)
Copy OK
All tracks accurately ripped
No errors occurred
End of status report
==== Log checksum 64DB28EEA01C48D0CC04F0B45B517FC37E74B6326EBEBA630D901D6E80FB85FF ====

Содержание индексной карты (.CUE)

REM GENRE "Classical; Stage & screen"
REM DATE 2015
REM DISCID 7C12A637
REM COMMENT "ExactAudioCopy v1.3"
CATALOG 0825646047963
PERFORMER "Erik Satie"
TITLE "Tout Satie ! Erik Satie • Complete Edition"
REM COMPOSER ""
FILE "01. Sonnerie pour réveiller le bon gros Roi des Singes.wav" WAVE
TRACK 01 AUDIO
TITLE "Sonnerie pour réveiller le bon gros Roi des Singes"
PERFORMER "Erik Satie"
REM COMPOSER ""
ISRC FRZ200300125
INDEX 01 00:00:00
FILE "02. Gymnopédie No. 1.wav" WAVE
TRACK 02 AUDIO
TITLE "Gymnopédie No. 1"
PERFORMER "Erik Satie"
REM COMPOSER ""
ISRC FRZ118800590
INDEX 01 00:00:00
FILE "03. Gymnopédie No. 2.wav" WAVE
TRACK 03 AUDIO
TITLE "Gymnopédie No. 2"
PERFORMER "Erik Satie"
REM COMPOSER ""
ISRC FRZ118800600
INDEX 01 00:00:00
FILE "04. Le Picadilly.wav" WAVE
TRACK 04 AUDIO
TITLE "Le Picadilly"
PERFORMER "Erik Satie"
REM COMPOSER ""
ISRC FRZ118800790
INDEX 01 00:00:00
FILE "05. Gnossienne No. 3.wav" WAVE
TRACK 05 AUDIO
TITLE "Gnossienne No. 3"
PERFORMER "Erik Satie"
REM COMPOSER ""
ISRC FRZ118800690
INDEX 01 00:00:00
FILE "06. En habit de cheval - I. Choral.wav" WAVE
TRACK 06 AUDIO
TITLE "En habit de cheval - I. Choral"
PERFORMER "Erik Satie"
REM COMPOSER ""
ISRC FRZ118800550
INDEX 01 00:00:00
FILE "07. En habit de cheval - II. Fugue litanique.wav" WAVE
TRACK 07 AUDIO
TITLE "En habit de cheval - II. Fugue litanique"
PERFORMER "Erik Satie"
REM COMPOSER ""
ISRC FRZ118800560
INDEX 01 00:00:00
FILE "08. En habit de cheval - III. Autre choral.wav" WAVE
TRACK 08 AUDIO
TITLE "En habit de cheval - III. Autre choral"
PERFORMER "Erik Satie"
REM COMPOSER ""
ISRC FRZ118800570
INDEX 01 00:00:00
FILE "09. En habit de cheval - IV. Fugue de papier.wav" WAVE
TRACK 09 AUDIO
TITLE "En habit de cheval - IV. Fugue de papier"
PERFORMER "Erik Satie"
REM COMPOSER ""
ISRC FRZ118800580
INDEX 01 00:00:00
FILE "10. Cinq grimaces pour ''Un songe d'une nuit d'été'' - I. Modéré.wav" WAVE
TRACK 10 AUDIO
TITLE "Cinq grimaces pour 'Un songe d'une nuit d'été' - I. Modéré"
PERFORMER "Erik Satie"
REM COMPOSER ""
ISRC FRZ118800740
INDEX 01 00:00:00
FILE "11. Cinq grimaces pour ''Un songe d'une nuit d'été'' - II. Peu vite.wav" WAVE
TRACK 11 AUDIO
TITLE "Cinq grimaces pour 'Un songe d'une nuit d'été' - II. Peu vite"
PERFORMER "Erik Satie"
REM COMPOSER ""
ISRC FRZ118800750
INDEX 01 00:00:00
FILE "12. Cinq grimaces pour ''Un songe d'une nuit d'été'' - III. Modéré.wav" WAVE
TRACK 12 AUDIO
TITLE "Cinq grimaces pour 'Un songe d'une nuit d'été' - III. Modéré"
PERFORMER "Erik Satie"
REM COMPOSER ""
ISRC FRZ118800760
INDEX 01 00:00:00
FILE "13. Cinq grimaces pour ''Un songe d'une nuit d'été'' - IV. Temps de marche.wav" WAVE
TRACK 13 AUDIO
TITLE "Cinq grimaces pour 'Un songe d'une nuit d'été' - IV. Temps de marche"
PERFORMER "Erik Satie"
REM COMPOSER ""
ISRC FRZ118800770
INDEX 01 00:00:00
FILE "14. Cinq grimaces pour ''Un songe d'une nuit d'été'' - V. Modéré.wav" WAVE
TRACK 14 AUDIO
TITLE "Cinq grimaces pour 'Un songe d'une nuit d'été' - V. Modéré"
PERFORMER "Erik Satie"
REM COMPOSER ""
ISRC FRZ118800780
INDEX 01 00:00:00
TRACK 15 AUDIO
TITLE "La Belle excentrique - I. Grande ritournelle"
PERFORMER "Erik Satie"
REM COMPOSER ""
ISRC FRZ118800700
INDEX 00 01:02:31
FILE "15. La Belle excentrique - I. Grande ritournelle.wav" WAVE
INDEX 01 00:00:00
FILE "16. La Belle excentrique - II. Marche franco-lunaire.wav" WAVE
TRACK 16 AUDIO
TITLE "La Belle excentrique - II. Marche franco-lunaire"
PERFORMER "Erik Satie"
REM COMPOSER ""
ISRC FRZ118800710
INDEX 01 00:00:00
FILE "17. La Belle excentrique - III. Valse du mystérieux baiser dans l'œil.wav" WAVE
TRACK 17 AUDIO
TITLE "La Belle excentrique - III. Valse du mystérieux baiser dans l'œil"
PERFORMER "Erik Satie"
REM COMPOSER ""
ISRC FRZ118800720
INDEX 01 00:00:00
FILE "18. La Belle excentrique - IV. Cancan grand-mondain.wav" WAVE
TRACK 18 AUDIO
TITLE "La Belle excentrique - IV. Cancan grand-mondain"
PERFORMER "Erik Satie"
REM COMPOSER ""
ISRC FRZ118800730
INDEX 01 00:00:00
FILE "19. Musiques d'ameublement - I. Tenture de cabinet préfectoral.wav" WAVE
TRACK 19 AUDIO
TITLE "Musiques d'ameublement - I. Tenture de cabinet préfectoral"
PERFORMER "Erik Satie"
REM COMPOSER ""
ISRC FRZ200300126
INDEX 01 00:00:00
FILE "20. Musiques d'ameublement - II. Tapisserie en fer forgé.wav" WAVE
TRACK 20 AUDIO
TITLE "Musiques d'ameublement - II. Tapisserie en fer forgé"
PERFORMER "Erik Satie"
REM COMPOSER ""
ISRC FRZ200300127
INDEX 01 00:00:00
FILE "21. Musiques d'ameublement - III. Carrelage phonique.wav" WAVE
TRACK 21 AUDIO
TITLE "Musiques d'ameublement - III. Carrelage phonique"
PERFORMER "Erik Satie"
REM COMPOSER ""
ISRC FRZ200300128
INDEX 01 00:00:00
FILE "22. Relâche - Première partie - I. Ouverturette.wav" WAVE
TRACK 22 AUDIO
TITLE "Relâche - Première partie - I. Ouverturette"
PERFORMER "Erik Satie"
REM COMPOSER ""
ISRC GBAYC9403038
INDEX 01 00:00:00
FILE "23. Relâche - Première partie - II. Projectionette.wav" WAVE
TRACK 23 AUDIO
TITLE "Relâche - Première partie - II. Projectionette"
PERFORMER "Erik Satie"
REM COMPOSER ""
ISRC GBAYC9403039
INDEX 01 00:00:00
FILE "24. Relâche - Première partie - III. Rideau - Entrée de la femme.wav" WAVE
TRACK 24 AUDIO
TITLE "Relâche - Première partie - III. Rideau - Entrée de la femme"
PERFORMER "Erik Satie"
REM COMPOSER ""
ISRC GBAYC9403040
INDEX 01 00:00:00
FILE "25. Relâche - Première partie - IV. Musique.wav" WAVE
TRACK 25 AUDIO
TITLE "Relâche - Première partie - IV. Musique"
PERFORMER "Erik Satie"
REM COMPOSER ""
ISRC GBAYC9403041
INDEX 01 00:00:00
FILE "26. Relâche - Première partie - V. Entrée de Borlin.wav" WAVE
TRACK 26 AUDIO
TITLE "Relâche - Première partie - V. Entrée de Borlin"
PERFORMER "Erik Satie"
REM COMPOSER ""
ISRC GBAYC9403042
INDEX 01 00:00:00
FILE "27. Relâche - Première partie - VI. Danse de la porte tournante.wav" WAVE
TRACK 27 AUDIO
TITLE "Relâche - Première partie - VI. Danse de la porte tournante"
PERFORMER "Erik Satie"
REM COMPOSER ""
ISRC GBAYC9403043
INDEX 01 00:00:00
FILE "28. Relâche - Première partie - VII. Entrée des hommes.wav" WAVE
TRACK 28 AUDIO
TITLE "Relâche - Première partie - VII. Entrée des hommes"
PERFORMER "Erik Satie"
REM COMPOSER ""
ISRC GBAYC9403044
INDEX 01 00:00:00
FILE "29. Relâche - Première partie - VIII. Danse des hommes.wav" WAVE
TRACK 29 AUDIO
TITLE "Relâche - Première partie - VIII. Danse des hommes"
PERFORMER "Erik Satie"
REM COMPOSER ""
ISRC GBAYC9403045
INDEX 01 00:00:00
FILE "30. Relâche - Première partie - IX. Danse de la femme.wav" WAVE
TRACK 30 AUDIO
TITLE "Relâche - Première partie - IX. Danse de la femme"
PERFORMER "Erik Satie"
REM COMPOSER ""
ISRC GBAYC9403046
INDEX 01 00:00:00
FILE "31. Relâche - Première partie - X. Final.wav" WAVE
TRACK 31 AUDIO
TITLE "Relâche - Première partie - X. Final"
PERFORMER "Erik Satie"
REM COMPOSER ""
ISRC GBAYC9403047
INDEX 01 00:00:00
FILE "32. Relâche - Deuxième partie - I. Musique de rentrée.wav" WAVE
TRACK 32 AUDIO
TITLE "Relâche - Deuxième partie - I. Musique de rentrée"
PERFORMER "Erik Satie"
REM COMPOSER ""
ISRC GBAYC9403049
INDEX 01 00:00:00
FILE "33. Relâche - Deuxième partie - II. Rentrée des hommes.wav" WAVE
TRACK 33 AUDIO
TITLE "Relâche - Deuxième partie - II. Rentrée des hommes"
PERFORMER "Erik Satie"
REM COMPOSER ""
ISRC GBAYC9403050
INDEX 01 00:00:00
FILE "34. Relâche - Deuxième partie - III. Rentrée des femmes.wav" WAVE
TRACK 34 AUDIO
TITLE "Relâche - Deuxième partie - III. Rentrée des femmes"
PERFORMER "Erik Satie"
REM COMPOSER ""
ISRC GBAYC9403051
INDEX 01 00:00:00
FILE "35. Relâche - Deuxième partie - IV. Les hommes se dévêtissent.wav" WAVE
TRACK 35 AUDIO
TITLE "Relâche - Deuxième partie - IV. Les hommes se dévêtissent"
PERFORMER "Erik Satie"
REM COMPOSER ""
ISRC GBAYC9403052
INDEX 01 00:00:00
FILE "36. Relâche - Deuxième partie - V. Danse de Borlin et de la femme.wav" WAVE
TRACK 36 AUDIO
TITLE "Relâche - Deuxième partie - V. Danse de Borlin et de la femme"
PERFORMER "Erik Satie"
REM COMPOSER ""
ISRC GBAYC9403053
INDEX 01 00:00:00
FILE "37. Relâche - Deuxième partie - VI. Les hommes regagnent leur place.wav" WAVE
TRACK 37 AUDIO
TITLE "Relâche - Deuxième partie - VI. Les hommes regagnent leur place"
PERFORMER "Erik Satie"
REM COMPOSER ""
ISRC GBAYC9403054
INDEX 01 00:00:00
FILE "38. Relâche - Deuxième partie - VII. Danse de la brouette.wav" WAVE
TRACK 38 AUDIO
TITLE "Relâche - Deuxième partie - VII. Danse de la brouette"
PERFORMER "Erik Satie"
REM COMPOSER ""
ISRC GBAYC9403055
INDEX 01 00:00:00
FILE "39. Relâche - Deuxième partie - VIII. Danse de la couronne.wav" WAVE
TRACK 39 AUDIO
TITLE "Relâche - Deuxième partie - VIII. Danse de la couronne"
PERFORMER "Erik Satie"
REM COMPOSER ""
ISRC GBAYC9403056
INDEX 01 00:00:00
FILE "40. Relâche - Deuxième partie - IX. Le danseur.wav" WAVE
TRACK 40 AUDIO
TITLE "Relâche - Deuxième partie - IX. Le danseur"
PERFORMER "Erik Satie"
REM COMPOSER ""
ISRC GBAYC9403057
INDEX 01 00:00:00
FILE "41. Relâche - Deuxième partie - X. La femme.wav" WAVE
TRACK 41 AUDIO
TITLE "Relâche - Deuxième partie - X. La femme"
PERFORMER "Erik Satie"
REM COMPOSER ""
ISRC GBAYC9403058
INDEX 01 00:00:00
FILE "42. Relâche - Deuxième partie - XI. La queue du chien.wav" WAVE
TRACK 42 AUDIO
TITLE "Relâche - Deuxième partie - XI. La queue du chien"
PERFORMER "Erik Satie"
REM COMPOSER ""
ISRC GBAYC9403059
INDEX 01 00:00:00
FILE "43. Mercure - Premier tableau - I. Ouverture.wav" WAVE
TRACK 43 AUDIO
TITLE "Mercure - Premier tableau - I. Ouverture"
PERFORMER "Erik Satie"
REM COMPOSER ""
ISRC FRZ111001425
INDEX 01 00:00:00
FILE "44. Mercure - Premier tableau - II. La nuit.wav" WAVE
TRACK 44 AUDIO
TITLE "Mercure - Premier tableau - II. La nuit"
PERFORMER "Erik Satie"
REM COMPOSER ""
ISRC FRZ111001426
INDEX 01 00:00:00
FILE "45. Mercure - Premier tableau - III. Danse de tendresse.wav" WAVE
TRACK 45 AUDIO
TITLE "Mercure - Premier tableau - III. Danse de tendresse"
PERFORMER "Erik Satie"
REM COMPOSER ""
ISRC FRZ111001427
INDEX 01 00:00:00
FILE "46. Mercure - Premier tableau - IV. Signes du zodiaque.wav" WAVE
TRACK 46 AUDIO
TITLE "Mercure - Premier tableau - IV. Signes du zodiaque"
PERFORMER "Erik Satie"
REM COMPOSER ""
ISRC FRZ111001428
INDEX 01 00:00:00
FILE "47. Mercure - Premier tableau - V. Entrée et danse de Mercure.wav" WAVE
TRACK 47 AUDIO
TITLE "Mercure - Premier tableau - V. Entrée et danse de Mercure"
PERFORMER "Erik Satie"
REM COMPOSER ""
ISRC FRZ111001429
INDEX 01 00:00:00
FILE "48. Mercure - Deuxième tableau - I. Danse des grâces.wav" WAVE
TRACK 48 AUDIO
TITLE "Mercure - Deuxième tableau - I. Danse des grâces"
PERFORMER "Erik Satie"
REM COMPOSER ""
ISRC FRZ111001430
INDEX 01 00:00:00
FILE "49. Mercure - Deuxième tableau - II. Bain des grâces.wav" WAVE
TRACK 49 AUDIO
TITLE "Mercure - Deuxième tableau - II. Bain des grâces"
PERFORMER "Erik Satie"
REM COMPOSER ""
ISRC FRZ111001431
INDEX 01 00:00:00
FILE "50. Mercure - Deuxième tableau - III. Fuite de Mercure - Colère de Cerbère.wav" WAVE
TRACK 50 AUDIO
TITLE "Mercure - Deuxième tableau - III. Fuite de Mercure - Colère de Cerbère"
PERFORMER "Erik Satie"
REM COMPOSER ""
ISRC FRZ111001432
INDEX 01 00:00:00
FILE "51. Mercure - Troisième tableau - I. Polka des lettres.wav" WAVE
TRACK 51 AUDIO
TITLE "Mercure - Troisième tableau - I. Polka des lettres"
PERFORMER "Erik Satie"
REM COMPOSER ""
ISRC FRZ111001433
INDEX 01 00:00:00
FILE "52. Mercure - Troisième tableau - II. Nouvelle danse.wav" WAVE
TRACK 52 AUDIO
TITLE "Mercure - Troisième tableau - II. Nouvelle danse"
PERFORMER "Erik Satie"
REM COMPOSER ""
ISRC FRZ111001434
INDEX 01 00:00:00
FILE "53. Mercure - Troisième tableau - III. Le chaos.wav" WAVE
TRACK 53 AUDIO
TITLE "Mercure - Troisième tableau - III. Le chaos"
PERFORMER "Erik Satie"
REM COMPOSER ""
ISRC FRZ111001435
INDEX 01 00:00:00
FILE "54. Mercure - Troisième tableau - IV. Final.wav" WAVE
TRACK 54 AUDIO
TITLE "Mercure - Troisième tableau - IV. Final"
PERFORMER "Erik Satie"
REM COMPOSER ""
ISRC FRZ111001436
INDEX 01 00:00:00
TRACK 55 AUDIO
TITLE "Les Pantins dansent"
PERFORMER "Erik Satie"
REM COMPOSER ""
ISRC FRZ110901757
INDEX 00 01:07:64
FILE "55. Les Pantins dansent.wav" WAVE
INDEX 01 00:00:00

CD 2 - Ballets

Продолжительность: 01:18:09

Треклист

Parade (ballet réaliste sur un thème de Jean Cocteau) - 1917
01. Choral - Prélude du rideau rouge
02. Prestidigitateur chinois
03. Petite fille américaine
04. Rag-time du paquebot
05. Acrobates
06. Suprêmes effors et chute des ménagers - Final
Socrate (drame symphonique en 3 parties sur des dialogues de Platon, traduction de Victor Cousin) - 1918
07. Portrait de Socrate (Le Banquet)
08. Bords de l'Ilissus
09. La mort de Socrate
10. Le piège de Méduse, comédie lyrique en un acte avec sept petites danses pour huit instruments (1921)

Лог создания рипа

Exact Audio Copy V1.3 from 2. September 2016
EAC extraction logfile from 27. October 2018, 13:04
Erik Satie / Tout Satie ! Erik Satie • Complete Edition
Used drive : PLEXTOR DVDR PX-891SA Adapter: 1 ID: 0
Read mode : Secure
Utilize accurate stream : Yes
Defeat audio cache : Yes
Make use of C2 pointers : No
Read offset correction : 6
Overread into Lead-In and Lead-Out : No
Fill up missing offset samples with silence : Yes
Delete leading and trailing silent blocks : No
Null samples used in CRC calculations : Yes
Used interface : Native Win32 interface for Win NT & 2000
Gap handling : Appended to previous track
Used output format : User Defined Encoder
Selected bitrate : 1024 kBit/s
Quality : High
Add ID3 tag : No
Command line compressor : C:\Program Files (x86)\Exact Audio Copy\FLAC\FLAC.EXE
Additional command line options : -8 -V -T "ARTIST=%artist%" -T "TITLE=%title%" -T "ALBUM=%albumtitle%" -T "DATE=%year%" -T "TRACKNUMBER=%tracknr%" -T "GENRE=%genre%" -T "COMMENT=%comment%" -T "BAND=%albuminterpret%" -T "ALBUMARTIST=%albuminterpret%" -T "COMPOSER=%composer%" %haslyrics%--tag-from-file=LYRICS="%lyricsfile%"%haslyrics% -T "DISCNUMBER=%cdnumber%" -T "TOTALDISCS=%totalcds%" -T "TOTALTRACKS=%numtracks%" %hascover%--picture="%coverfile%"%hascover% %source% -o %dest%
TOC of the extracted CD
Track | Start | Length | Start sector | End sector
---------------------------------------------------------
1 | 0:00.00 | 2:38.11 | 0 | 11860
2 | 2:38.11 | 2:39.23 | 11861 | 23808
3 | 5:17.34 | 1:54.22 | 23809 | 32380
4 | 7:11.56 | 2:17.68 | 32381 | 42723
5 | 9:29.49 | 2:44.72 | 42724 | 55095
6 | 12:14.46 | 3:28.73 | 55096 | 70768
7 | 15:43.44 | 6:44.06 | 70769 | 101074
8 | 22:27.50 | 8:02.46 | 101075 | 137270
9 | 30:30.21 | 22:05.50 | 137271 | 236695
10 | 52:35.71 | 25:33.20 | 236696 | 351690
Track 1
Filename H:\Torrents\Satie, Erik\Satie, Erik (2015) [0825646047963] Tout Satie ! Erik Satie • Complete Edition\CD 2 - Ballets\01. Parade - Choral - Prélude du rideau rouge.wav
Pre-gap length 0:00:02.00
Peak level 54.4 %
Extraction speed 5.3 X
Track quality 100.0 %
Test CRC 6FF83E0A
Copy CRC 6FF83E0A
Accurately ripped (confidence 12) [F5CD8864] (AR v2)
Copy OK
Track 2
Filename H:\Torrents\Satie, Erik\Satie, Erik (2015) [0825646047963] Tout Satie ! Erik Satie • Complete Edition\CD 2 - Ballets\02. Parade - Prestidigitateur chinois.wav
Peak level 61.1 %
Extraction speed 5.7 X
Track quality 100.0 %
Test CRC 66DF4BD6
Copy CRC 66DF4BD6
Accurately ripped (confidence 12) [5B8DD241] (AR v2)
Copy OK
Track 3
Filename H:\Torrents\Satie, Erik\Satie, Erik (2015) [0825646047963] Tout Satie ! Erik Satie • Complete Edition\CD 2 - Ballets\03. Parade - Petite fille américaine.wav
Peak level 57.7 %
Extraction speed 5.6 X
Track quality 100.0 %
Test CRC 7132CAE4
Copy CRC 7132CAE4
Accurately ripped (confidence 12) [9C5C40AE] (AR v2)
Copy OK
Track 4
Filename H:\Torrents\Satie, Erik\Satie, Erik (2015) [0825646047963] Tout Satie ! Erik Satie • Complete Edition\CD 2 - Ballets\04. Parade - Rag-time du paquebot.wav
Peak level 49.9 %
Extraction speed 6.1 X
Track quality 100.0 %
Test CRC BF868A0D
Copy CRC BF868A0D
Accurately ripped (confidence 12) [14C51791] (AR v2)
Copy OK
Track 5
Filename H:\Torrents\Satie, Erik\Satie, Erik (2015) [0825646047963] Tout Satie ! Erik Satie • Complete Edition\CD 2 - Ballets\05. Parade - Acrobates.wav
Peak level 52.2 %
Extraction speed 6.5 X
Track quality 100.0 %
Test CRC 874CC589
Copy CRC 874CC589
Accurately ripped (confidence 12) [3276D4CC] (AR v2)
Copy OK
Track 6
Filename H:\Torrents\Satie, Erik\Satie, Erik (2015) [0825646047963] Tout Satie ! Erik Satie • Complete Edition\CD 2 - Ballets\06. Parade - Suprêmes effors et chute des ménagers - Final.wav
Peak level 62.3 %
Extraction speed 7.1 X
Track quality 100.0 %
Test CRC A2C6C972
Copy CRC A2C6C972
Accurately ripped (confidence 12) [BEA0C793] (AR v2)
Copy OK
Track 7
Filename H:\Torrents\Satie, Erik\Satie, Erik (2015) [0825646047963] Tout Satie ! Erik Satie • Complete Edition\CD 2 - Ballets\07. Socrate - Portrait de Socrate (Le Banquet).wav
Pre-gap length 0:00:06.50
Peak level 75.0 %
Extraction speed 8.2 X
Track quality 100.0 %
Test CRC 638D311E
Copy CRC 638D311E
Accurately ripped (confidence 12) [99DA8A0A] (AR v2)
Copy OK
Track 8
Filename H:\Torrents\Satie, Erik\Satie, Erik (2015) [0825646047963] Tout Satie ! Erik Satie • Complete Edition\CD 2 - Ballets\08. Socrate - Bords de l'Ilissus.wav
Peak level 70.9 %
Extraction speed 9.1 X
Track quality 100.0 %
Test CRC 753EA566
Copy CRC 753EA566
Accurately ripped (confidence 12) [6A6DB9D2] (AR v2)
Copy OK
Track 9
Filename H:\Torrents\Satie, Erik\Satie, Erik (2015) [0825646047963] Tout Satie ! Erik Satie • Complete Edition\CD 2 - Ballets\09. Socrate - La mort de Socrate.wav
Peak level 51.4 %
Extraction speed 10.4 X
Track quality 99.9 %
Test CRC 55F7B97D
Copy CRC 55F7B97D
Accurately ripped (confidence 12) [CFD221AA] (AR v2)
Copy OK
Track 10
Filename H:\Torrents\Satie, Erik\Satie, Erik (2015) [0825646047963] Tout Satie ! Erik Satie • Complete Edition\CD 2 - Ballets\10. Le piège de Méduse.wav
Pre-gap length 0:00:06.50
Peak level 90.8 %
Extraction speed 12.9 X
Track quality 100.0 %
Test CRC D3C4C646
Copy CRC D3C4C646
Accurately ripped (confidence 12) [66986165] (AR v2)
Copy OK
All tracks accurately ripped
No errors occurred
End of status report
==== Log checksum 7470815ECF07925627C535512E27D8AC818D79AEF80370009BC5AD8B91A7941D ====

Содержание индексной карты (.CUE)

REM GENRE "Classical; Stage & screen"
REM DATE 2015
REM DISCID 7E12510A
REM COMMENT "ExactAudioCopy v1.3"
CATALOG 0825646047963
PERFORMER "Erik Satie"
TITLE "Tout Satie ! Erik Satie • Complete Edition"
REM COMPOSER ""
FILE "01. Parade - Choral - Prélude du rideau rouge.wav" WAVE
TRACK 01 AUDIO
TITLE "Parade - Choral - Prélude du rideau rouge"
PERFORMER "Erik Satie"
REM COMPOSER ""
ISRC FRZ111001398
INDEX 01 00:00:00
FILE "02. Parade - Prestidigitateur chinois.wav" WAVE
TRACK 02 AUDIO
TITLE "Parade - Prestidigitateur chinois"
PERFORMER "Erik Satie"
REM COMPOSER ""
ISRC FRZ111001399
INDEX 01 00:00:00
FILE "03. Parade - Petite fille américaine.wav" WAVE
TRACK 03 AUDIO
TITLE "Parade - Petite fille américaine"
PERFORMER "Erik Satie"
REM COMPOSER ""
ISRC FRZ111001400
INDEX 01 00:00:00
FILE "04. Parade - Rag-time du paquebot.wav" WAVE
TRACK 04 AUDIO
TITLE "Parade - Rag-time du paquebot"
PERFORMER "Erik Satie"
REM COMPOSER ""
ISRC FRZ111001401
INDEX 01 00:00:00
FILE "05. Parade - Acrobates.wav" WAVE
TRACK 05 AUDIO
TITLE "Parade - Acrobates"
PERFORMER "Erik Satie"
REM COMPOSER ""
ISRC FRZ111001402
INDEX 01 00:00:00
FILE "06. Parade - Suprêmes effors et chute des ménagers - Final.wav" WAVE
TRACK 06 AUDIO
TITLE "Parade - Suprêmes effors et chute des ménagers - Final"
PERFORMER "Erik Satie"
REM COMPOSER ""
ISRC FRZ111001459
INDEX 01 00:00:00
TRACK 07 AUDIO
TITLE "Socrate - Portrait de Socrate (Le Banquet)"
PERFORMER "Erik Satie"
REM COMPOSER ""
ISRC FRZ117104248
INDEX 00 03:22:23
FILE "07. Socrate - Portrait de Socrate (Le Banquet).wav" WAVE
INDEX 01 00:00:00
FILE "08. Socrate - Bords de l'Ilissus.wav" WAVE
TRACK 08 AUDIO
TITLE "Socrate - Bords de l'Ilissus"
PERFORMER "Erik Satie"
REM COMPOSER ""
ISRC FRZ117104249
INDEX 01 00:00:00
FILE "09. Socrate - La mort de Socrate.wav" WAVE
TRACK 09 AUDIO
TITLE "Socrate - La mort de Socrate"
PERFORMER "Erik Satie"
REM COMPOSER ""
ISRC FRZ117104250
INDEX 01 00:00:00
TRACK 10 AUDIO
TITLE "Le piège de Méduse"
PERFORMER "Erik Satie"
REM COMPOSER ""
ISRC FRZ110901759
INDEX 00 21:59:00
FILE "10. Le piège de Méduse.wav" WAVE
INDEX 01 00:00:00

CD 3 - Piano Works

Продолжительность: 01:17:59

Треклист

Trois Gymnopédies - 1888
01. I. Lent et douloureux
02. II. Lent et triste
03. III. Lent et grave
L'enfance de Ko-Quo (recommandations maternelles) - 1913
04. I. Ne bois pas ton chocolat avec tes doigts
05. II. Ne souffle pas dans tes oreilles
06. III. Ne mets pas ta tête sous ton bras
07. Gambades (1912)
Nocturnes - 1919
08. I. Doux et calme
09. II. Simplement
10. III. Un peu mouvementé
11. IV. Mystérieux et tendre
12. V.
13. VI.
Six Gnossiennes - 1889-1891 (I-V), 1897 (VI)
14. I. Lent
15. II. Avec étonnement
16. III. Lent
17. IV. Lent
18. V. Modéré
19. VI. Avec conviction et avec une tristesse rigoureuse
20. Gnossienne No. 7 (1891)
Croquis et agaceries d'un gros bonhomme en bois - 1913
21. I. Tyrolienne turque
22. II. Danse maigre (à la manière de ces messieurs)
23. III. Españaña (sorte de valse)
Descriptions automatiques - 1913
24. I. Sur un vaisseau
25. II. Sur une lanterne
26. III. Sur un casque
Vieux sequins et vielles cuirasses - 1913
27. I. Chez le marchand d'or (Venise XIIIe siècle)
28. II. Danse cuirassée (Période grecque)
29. III. La défaite de Cimbres (Cauchemar)
Les trois valses distinguées du précieux dégoûté - 1914
30. I. Sa taille
31. II. Son binocle
32. III. Ses jambes
Trois Sarabandes - 1887
33. No. 1
34. No. 2
35. No. 3

Лог создания рипа

Exact Audio Copy V1.3 from 2. September 2016
EAC extraction logfile from 27. October 2018, 14:54
Erik Satie / Tout Satie ! Erik Satie • Complete Edition
Used drive : PLEXTOR DVDR PX-891SA Adapter: 1 ID: 0
Read mode : Secure
Utilize accurate stream : Yes
Defeat audio cache : Yes
Make use of C2 pointers : No
Read offset correction : 6
Overread into Lead-In and Lead-Out : No
Fill up missing offset samples with silence : Yes
Delete leading and trailing silent blocks : No
Null samples used in CRC calculations : Yes
Used interface : Native Win32 interface for Win NT & 2000
Gap handling : Appended to previous track
Used output format : User Defined Encoder
Selected bitrate : 1024 kBit/s
Quality : High
Add ID3 tag : No
Command line compressor : C:\Program Files (x86)\Exact Audio Copy\FLAC\FLAC.EXE
Additional command line options : -8 -V -T "ARTIST=%artist%" -T "TITLE=%title%" -T "ALBUM=%albumtitle%" -T "DATE=%year%" -T "TRACKNUMBER=%tracknr%" -T "GENRE=%genre%" -T "COMMENT=%comment%" -T "BAND=%albuminterpret%" -T "ALBUMARTIST=%albuminterpret%" -T "COMPOSER=%composer%" %haslyrics%--tag-from-file=LYRICS="%lyricsfile%"%haslyrics% -T "DISCNUMBER=%cdnumber%" -T "TOTALDISCS=%totalcds%" -T "TOTALTRACKS=%numtracks%" %hascover%--picture="%coverfile%"%hascover% %source% -o %dest%
TOC of the extracted CD
Track | Start | Length | Start sector | End sector
---------------------------------------------------------
1 | 0:00.00 | 3:08.31 | 0 | 14130
2 | 3:08.31 | 3:20.27 | 14131 | 29157
3 | 6:28.58 | 2:46.18 | 29158 | 41625
4 | 9:15.01 | 0:52.26 | 41626 | 45551
5 | 10:07.27 | 0:36.48 | 45552 | 48299
6 | 10:44.00 | 0:49.68 | 48300 | 52042
7 | 11:33.68 | 1:38.17 | 52043 | 59409
8 | 13:12.10 | 2:59.66 | 59410 | 72900
9 | 16:12.01 | 1:57.37 | 72901 | 81712
10 | 18:09.38 | 2:44.31 | 81713 | 94043
11 | 20:53.69 | 2:41.32 | 94044 | 106150
12 | 23:35.26 | 2:15.20 | 106151 | 116295
13 | 25:50.46 | 1:26.48 | 116296 | 122793
14 | 27:17.19 | 3:03.01 | 122794 | 136519
15 | 30:20.20 | 1:28.60 | 136520 | 143179
16 | 31:49.05 | 2:20.14 | 143180 | 153693
17 | 34:09.19 | 1:45.66 | 153694 | 161634
18 | 35:55.10 | 3:31.63 | 161635 | 177522
19 | 39:26.73 | 1:15.15 | 177523 | 183162
20 | 40:42.13 | 4:53.48 | 183163 | 205185
21 | 45:35.61 | 1:25.46 | 205186 | 211606
22 | 47:01.32 | 1:18.64 | 211607 | 217520
23 | 48:20.21 | 1:10.55 | 217521 | 222825
24 | 49:31.01 | 1:55.63 | 222826 | 231513
25 | 51:26.64 | 1:41.24 | 231514 | 239112
26 | 53:08.13 | 1:10.34 | 239113 | 244396
27 | 54:18.47 | 1:34.41 | 244397 | 251487
28 | 55:53.13 | 0:51.39 | 251488 | 255351
29 | 56:44.52 | 1:26.20 | 255352 | 261821
30 | 58:10.72 | 0:58.26 | 261822 | 266197
31 | 59:09.23 | 1:03.50 | 266198 | 270972
32 | 60:12.73 | 0:41.36 | 270973 | 274083
33 | 60:54.34 | 5:59.69 | 274084 | 301077
34 | 66:54.28 | 5:22.13 | 301078 | 325240
35 | 72:16.41 | 5:42.45 | 325241 | 350935
Track 1
Filename H:\Torrents\Satie, Erik\Satie, Erik (2015) [0825646047963] Tout Satie ! Erik Satie • Complete Edition\CD 3 - Piano Works\01. Trois Gymnopédies - I. Lent et douloureux.wav
Pre-gap length 0:00:02.00
Peak level 14.1 %
Extraction speed 2.0 X
Track quality 100.0 %
Test CRC 4722923A
Copy CRC 4722923A
Accurately ripped (confidence 12) [30620B17] (AR v2)
Copy OK
Track 2
Filename H:\Torrents\Satie, Erik\Satie, Erik (2015) [0825646047963] Tout Satie ! Erik Satie • Complete Edition\CD 3 - Piano Works\02. Trois Gymnopédies - II. Lent et triste.wav
Peak level 16.9 %
Extraction speed 2.2 X
Track quality 100.0 %
Test CRC BC79AAEE
Copy CRC BC79AAEE
Accurately ripped (confidence 12) [CB9E71B4] (AR v2)
Copy OK
Track 3
Filename H:\Torrents\Satie, Erik\Satie, Erik (2015) [0825646047963] Tout Satie ! Erik Satie • Complete Edition\CD 3 - Piano Works\03. Trois Gymnopédies - III. Lent et grave.wav
Peak level 12.9 %
Extraction speed 2.3 X
Track quality 100.0 %
Test CRC 54E27513
Copy CRC 54E27513
Accurately ripped (confidence 12) [23445A9D] (AR v2)
Copy OK
Track 4
Filename H:\Torrents\Satie, Erik\Satie, Erik (2015) [0825646047963] Tout Satie ! Erik Satie • Complete Edition\CD 3 - Piano Works\04. L'enfance de Ko-Quo - I. Ne bois pas ton chocolat avec tes doigts.wav
Pre-gap length 0:00:03.00
Peak level 26.4 %
Extraction speed 1.7 X
Track quality 100.0 %
Test CRC 69E0BBB6
Copy CRC 69E0BBB6
Accurately ripped (confidence 12) [D3747F8E] (AR v2)
Copy OK
Track 5
Filename H:\Torrents\Satie, Erik\Satie, Erik (2015) [0825646047963] Tout Satie ! Erik Satie • Complete Edition\CD 3 - Piano Works\05. L'enfance de Ko-Quo - II. Ne souffle pas dans tes oreilles.wav
Peak level 33.0 %
Extraction speed 1.4 X
Track quality 100.0 %
Test CRC 4D78B735
Copy CRC 4D78B735
Accurately ripped (confidence 12) [1C8FCE7B] (AR v2)
Copy OK
Track 6
Filename H:\Torrents\Satie, Erik\Satie, Erik (2015) [0825646047963] Tout Satie ! Erik Satie • Complete Edition\CD 3 - Piano Works\06. L'enfance de Ko-Quo - III. Ne mets pas ta tête sous ton bras.wav
Peak level 33.0 %
Extraction speed 1.6 X
Track quality 100.0 %
Test CRC 3D9A3E6E
Copy CRC 3D9A3E6E
Accurately ripped (confidence 12) [7D7594EA] (AR v2)
Copy OK
Track 7
Filename H:\Torrents\Satie, Erik\Satie, Erik (2015) [0825646047963] Tout Satie ! Erik Satie • Complete Edition\CD 3 - Piano Works\07. Gambades.wav
Pre-gap length 0:00:02.00
Peak level 42.6 %
Extraction speed 2.2 X
Track quality 100.0 %
Test CRC C8A90953
Copy CRC C8A90953
Accurately ripped (confidence 12) [5E1AB7B0] (AR v2)
Copy OK
Track 8
Filename H:\Torrents\Satie, Erik\Satie, Erik (2015) [0825646047963] Tout Satie ! Erik Satie • Complete Edition\CD 3 - Piano Works\08. Nocturnes - I. Doux et calme.wav
Pre-gap length 0:00:03.00
Peak level 45.3 %
Extraction speed 2.6 X
Track quality 100.0 %
Test CRC AF711DDC
Copy CRC AF711DDC
Accurately ripped (confidence 12) [25CCDDFA] (AR v2)
Copy OK
Track 9
Filename H:\Torrents\Satie, Erik\Satie, Erik (2015) [0825646047963] Tout Satie ! Erik Satie • Complete Edition\CD 3 - Piano Works\09. Nocturnes - II. Simplement.wav
Peak level 31.0 %
Extraction speed 1.5 X
Track quality 99.9 %
Test CRC 4BE0141A
Copy CRC 4BE0141A
Accurately ripped (confidence 12) [8EE23317] (AR v2)
Copy OK
Track 10
Filename H:\Torrents\Satie, Erik\Satie, Erik (2015) [0825646047963] Tout Satie ! Erik Satie • Complete Edition\CD 3 - Piano Works\10. Nocturnes - III. Un peu mouvementé.wav
Peak level 37.2 %
Extraction speed 2.7 X
Track quality 100.0 %
Test CRC 1D810325
Copy CRC 1D810325
Accurately ripped (confidence 12) [2C6A7982] (AR v2)
Copy OK
Track 11
Filename H:\Torrents\Satie, Erik\Satie, Erik (2015) [0825646047963] Tout Satie ! Erik Satie • Complete Edition\CD 3 - Piano Works\11. Nocturnes - IV. Mystérieux et tendre.wav
Peak level 16.5 %
Extraction speed 2.8 X
Track quality 100.0 %
Test CRC 25567C6A
Copy CRC 25567C6A
Accurately ripped (confidence 12) [D24E51A1] (AR v2)
Copy OK
Track 12
Filename H:\Torrents\Satie, Erik\Satie, Erik (2015) [0825646047963] Tout Satie ! Erik Satie • Complete Edition\CD 3 - Piano Works\12. Nocturnes - V..wav
Peak level 36.5 %
Extraction speed 2.8 X
Track quality 100.0 %
Test CRC 0031F9AA
Copy CRC 0031F9AA
Accurately ripped (confidence 12) [768DB54F] (AR v2)
Copy OK
Track 13
Filename H:\Torrents\Satie, Erik\Satie, Erik (2015) [0825646047963] Tout Satie ! Erik Satie • Complete Edition\CD 3 - Piano Works\13. Nocturnes - VI..wav
Pre-gap length 0:00:02.00
Peak level 31.9 %
Extraction speed 1.4 X
Track quality 99.8 %
Test CRC A224E599
Copy CRC A224E599
Accurately ripped (confidence 12) [64FEABA4] (AR v2)
Copy OK
Track 14
Filename H:\Torrents\Satie, Erik\Satie, Erik (2015) [0825646047963] Tout Satie ! Erik Satie • Complete Edition\CD 3 - Piano Works\14. Six Gnossiennes - I. Lent.wav
Pre-gap length 0:00:03.00
Peak level 29.9 %
Extraction speed 3.1 X
Track quality 100.0 %
Test CRC D47D0C9F
Copy CRC D47D0C9F
Accurately ripped (confidence 12) [5BC887BE] (AR v2)
Copy OK
Track 15
Filename H:\Torrents\Satie, Erik\Satie, Erik (2015) [0825646047963] Tout Satie ! Erik Satie • Complete Edition\CD 3 - Piano Works\15. Six Gnossiennes - II. Avec étonnement.wav
Peak level 16.6 %
Extraction speed 2.7 X
Track quality 100.0 %
Test CRC 90539970
Copy CRC 90539970
Accurately ripped (confidence 12) [CCEA6792] (AR v2)
Copy OK
Track 16
Filename H:\Torrents\Satie, Erik\Satie, Erik (2015) [0825646047963] Tout Satie ! Erik Satie • Complete Edition\CD 3 - Piano Works\16. Six Gnossiennes - III. Lent.wav
Peak level 13.7 %
Extraction speed 3.0 X
Track quality 100.0 %
Test CRC C85A71B8
Copy CRC C85A71B8
Accurately ripped (confidence 12) [303E8A15] (AR v2)
Copy OK
Track 17
Filename H:\Torrents\Satie, Erik\Satie, Erik (2015) [0825646047963] Tout Satie ! Erik Satie • Complete Edition\CD 3 - Piano Works\17. Six Gnossiennes - IV. Lent.wav
Peak level 20.9 %
Extraction speed 1.7 X
Track quality 99.8 %
Test CRC D38AB418
Copy CRC D38AB418
Accurately ripped (confidence 12) [1642FBDC] (AR v2)
Copy OK
Track 18
Filename H:\Torrents\Satie, Erik\Satie, Erik (2015) [0825646047963] Tout Satie ! Erik Satie • Complete Edition\CD 3 - Piano Works\18. Six Gnossiennes - V. Modéré.wav
Peak level 14.9 %
Extraction speed 2.5 X
Track quality 99.9 %
Test CRC 272C3457
Copy CRC 272C3457
Accurately ripped (confidence 12) [1D945B01] (AR v2)
Copy OK
Track 19
Filename H:\Torrents\Satie, Erik\Satie, Erik (2015) [0825646047963] Tout Satie ! Erik Satie • Complete Edition\CD 3 - Piano Works\19. Six Gnossiennes - VI. Avec conviction et avec une tristesse rigoureuse.wav
Peak level 17.1 %
Extraction speed 2.8 X
Track quality 100.0 %
Test CRC A6A34D43
Copy CRC A6A34D43
Accurately ripped (confidence 12) [B0727A42] (AR v2)
Copy OK
Track 20
Filename H:\Torrents\Satie, Erik\Satie, Erik (2015) [0825646047963] Tout Satie ! Erik Satie • Complete Edition\CD 3 - Piano Works\20. Gnossienne No. 7.wav
Pre-gap length 0:00:02.00
Peak level 54.0 %
Extraction speed 3.8 X
Track quality 100.0 %
Test CRC 728FAB6C
Copy CRC 728FAB6C
Accurately ripped (confidence 12) [CDABA0D7] (AR v2)
Copy OK
Track 21
Filename H:\Torrents\Satie, Erik\Satie, Erik (2015) [0825646047963] Tout Satie ! Erik Satie • Complete Edition\CD 3 - Piano Works\21. Croquis et agaceries d'un gros bonhomme en bois - I. Tyrolienne turque.wav
Pre-gap length 0:00:03.00
Peak level 39.3 %
Extraction speed 3.0 X
Track quality 100.0 %
Test CRC 6D9FBF3F
Copy CRC 6D9FBF3F
Accurately ripped (confidence 12) [3ED6F1C8] (AR v2)
Copy OK
Track 22
Filename H:\Torrents\Satie, Erik\Satie, Erik (2015) [0825646047963] Tout Satie ! Erik Satie • Complete Edition\CD 3 - Piano Works\22. Croquis et agaceries d'un gros bonhomme en bois - II. Danse maigre (à la manière de ces messieurs).wav
Peak level 48.1 %
Extraction speed 3.0 X
Track quality 100.0 %
Test CRC 65762A8C
Copy CRC 65762A8C
Accurately ripped (confidence 12) [9F7BAD9F] (AR v2)
Copy OK
Track 23
Filename H:\Torrents\Satie, Erik\Satie, Erik (2015) [0825646047963] Tout Satie ! Erik Satie • Complete Edition\CD 3 - Piano Works\23. Croquis et agaceries d'un gros bonhomme en bois - III. Españaña (sorte de valse).wav
Peak level 49.2 %
Extraction speed 1.5 X
Track quality 99.8 %
Test CRC 22531C48
Copy CRC 22531C48
Accurately ripped (confidence 12) [D7050543] (AR v2)
Copy OK
Track 24
Filename H:\Torrents\Satie, Erik\Satie, Erik (2015) [0825646047963] Tout Satie ! Erik Satie • Complete Edition\CD 3 - Piano Works\24. Descriptions automatiques - I. Sur un vaisseau.wav
Peak level 9.9 %
Extraction speed 2.0 X
Track quality 99.9 %
Test CRC 81C97D78
Copy CRC 81C97D78
Accurately ripped (confidence 12) [D71C0A39] (AR v2)
Copy OK
Track 25
Filename H:\Torrents\Satie, Erik\Satie, Erik (2015) [0825646047963] Tout Satie ! Erik Satie • Complete Edition\CD 3 - Piano Works\25. Descriptions automatiques - II. Sur une lanterne.wav
Peak level 39.3 %
Extraction speed 3.4 X
Track quality 100.0 %
Test CRC DDBFE569
Copy CRC DDBFE569
Accurately ripped (confidence 12) [5DBC2401] (AR v2)
Copy OK
Track 26
Filename H:\Torrents\Satie, Erik\Satie, Erik (2015) [0825646047963] Tout Satie ! Erik Satie • Complete Edition\CD 3 - Piano Works\26. Descriptions automatiques - III. Sur un casque.wav
Peak level 46.8 %
Extraction speed 3.0 X
Track quality 100.0 %
Test CRC E4356BEB
Copy CRC E4356BEB
Accurately ripped (confidence 12) [13043CD1] (AR v2)
Copy OK
Track 27
Filename H:\Torrents\Satie, Erik\Satie, Erik (2015) [0825646047963] Tout Satie ! Erik Satie • Complete Edition\CD 3 - Piano Works\27. Vieux sequins et vielles cuirasses - I. Chez le marchand d'or (Venise XIIIe siècle).wav
Peak level 52.0 %
Extraction speed 3.3 X
Track quality 100.0 %
Test CRC 604CC628
Copy CRC 604CC628
Accurately ripped (confidence 12) [F39016EC] (AR v2)
Copy OK
Track 28
Filename H:\Torrents\Satie, Erik\Satie, Erik (2015) [0825646047963] Tout Satie ! Erik Satie • Complete Edition\CD 3 - Piano Works\28. Vieux sequins et vielles cuirasses - II. Danse cuirassée (Période grecque).wav
Peak level 19.4 %
Extraction speed 2.6 X
Track quality 100.0 %
Test CRC A0DFA548
Copy CRC A0DFA548
Accurately ripped (confidence 12) [C735C430] (AR v2)
Copy OK
Track 29
Filename H:\Torrents\Satie, Erik\Satie, Erik (2015) [0825646047963] Tout Satie ! Erik Satie • Complete Edition\CD 3 - Piano Works\29. Vieux sequins et vielles cuirasses - III. La défaite de Cimbres (Cauchemar).wav
Peak level 41.5 %
Extraction speed 3.4 X
Track quality 100.0 %
Test CRC 8CE62EB4
Copy CRC 8CE62EB4
Accurately ripped (confidence 12) [7CD3F461] (AR v2)
Copy OK
Track 30
Filename H:\Torrents\Satie, Erik\Satie, Erik (2015) [0825646047963] Tout Satie ! Erik Satie • Complete Edition\CD 3 - Piano Works\30. Les trois valses distinguées du précieux dégoûté - I. Sa taille.wav
Peak level 34.2 %
Extraction speed 2.9 X
Track quality 100.0 %
Test CRC C5A88F5B
Copy CRC C5A88F5B
Accurately ripped (confidence 12) [9224329E] (AR v2)
Copy OK
Track 31
Filename H:\Torrents\Satie, Erik\Satie, Erik (2015) [0825646047963] Tout Satie ! Erik Satie • Complete Edition\CD 3 - Piano Works\31. Les trois valses distinguées du précieux dégoûté - II. Son binocle.wav
Peak level 7.7 %
Extraction speed 3.0 X
Track quality 100.0 %
Test CRC 5BC36798
Copy CRC 5BC36798
Accurately ripped (confidence 12) [86F9E7FC] (AR v2)
Copy OK
Track 32
Filename H:\Torrents\Satie, Erik\Satie, Erik (2015) [0825646047963] Tout Satie ! Erik Satie • Complete Edition\CD 3 - Piano Works\32. Les trois valses distinguées du précieux dégoûté - III. Ses jambes.wav
Peak level 46.9 %
Extraction speed 1.1 X
Track quality 99.7 %
Test CRC C88EB613
Copy CRC C88EB613
Accurately ripped (confidence 12) [25FC42D5] (AR v2)
Copy OK
Track 33
Filename H:\Torrents\Satie, Erik\Satie, Erik (2015) [0825646047963] Tout Satie ! Erik Satie • Complete Edition\CD 3 - Piano Works\33. Trois Sarabandes - No. 1.wav
Pre-gap length 0:00:03.00
Peak level 51.3 %
Extraction speed 4.5 X
Track quality 100.0 %
Test CRC F9612922
Copy CRC F9612922
Accurately ripped (confidence 12) [764B8AD5] (AR v2)
Copy OK
Track 34
Filename H:\Torrents\Satie, Erik\Satie, Erik (2015) [0825646047963] Tout Satie ! Erik Satie • Complete Edition\CD 3 - Piano Works\34. Trois Sarabandes - No. 2.wav
Peak level 58.4 %
Extraction speed 4.6 X
Track quality 100.0 %
Test CRC D4D3503A
Copy CRC D4D3503A
Accurately ripped (confidence 12) [D513FDA1] (AR v2)
Copy OK
Track 35
Filename H:\Torrents\Satie, Erik\Satie, Erik (2015) [0825646047963] Tout Satie ! Erik Satie • Complete Edition\CD 3 - Piano Works\35. Trois Sarabandes - No. 3.wav
Peak level 60.2 %
Extraction speed 3.7 X
Track quality 99.9 %
Test CRC 5E448767
Copy CRC 5E448767
Accurately ripped (confidence 12) [4B9AF065] (AR v2)
Copy OK
All tracks accurately ripped
No errors occurred
End of status report
==== Log checksum 11F7BACBFE497AC3D521F0F1689C20264279E69A163B71EBF54D6E5BC0A659BA ====

Содержание индексной карты (.CUE)

REM GENRE "Classical; Stage & screen"
REM DATE 2015
REM DISCID 07124723
REM COMMENT "ExactAudioCopy v1.3"
CATALOG 0825646047963
PERFORMER "Erik Satie"
TITLE "Tout Satie ! Erik Satie • Complete Edition"
REM COMPOSER ""
FILE "01. Trois Gymnopédies - I. Lent et douloureux.wav" WAVE
TRACK 01 AUDIO
TITLE "Trois Gymnopédies - I. Lent et douloureux"
PERFORMER "Erik Satie"
REM COMPOSER ""
ISRC FRZ110902027
INDEX 01 00:00:00
FILE "02. Trois Gymnopédies - II. Lent et triste.wav" WAVE
TRACK 02 AUDIO
TITLE "Trois Gymnopédies - II. Lent et triste"
PERFORMER "Erik Satie"
REM COMPOSER ""
ISRC FRZ209300202
INDEX 01 00:00:00
FILE "03. Trois Gymnopédies - III. Lent et grave.wav" WAVE
TRACK 03 AUDIO
TITLE "Trois Gymnopédies - III. Lent et grave"
PERFORMER "Erik Satie"
REM COMPOSER ""
ISRC GBAYC1302116
INDEX 01 00:00:00
TRACK 04 AUDIO
TITLE "L'enfance de Ko-Quo - I. Ne bois pas ton chocolat avec tes doigts"
PERFORMER "Erik Satie"
REM COMPOSER ""
ISRC GBAYC1502362
INDEX 00 02:43:18
FILE "04. L'enfance de Ko-Quo - I. Ne bois pas ton chocolat avec tes doigts.wav" WAVE
INDEX 01 00:00:00
FILE "05. L'enfance de Ko-Quo - II. Ne souffle pas dans tes oreilles.wav" WAVE
TRACK 05 AUDIO
TITLE "L'enfance de Ko-Quo - II. Ne souffle pas dans tes oreilles"
PERFORMER "Erik Satie"
REM COMPOSER ""
ISRC GBAYC1502363
INDEX 01 00:00:00
FILE "06. L'enfance de Ko-Quo - III. Ne mets pas ta tête sous ton bras.wav" WAVE
TRACK 06 AUDIO
TITLE "L'enfance de Ko-Quo - III. Ne mets pas ta tête sous ton bras"
PERFORMER "Erik Satie"
REM COMPOSER ""
ISRC GBAYC1502364
INDEX 01 00:00:00
TRACK 07 AUDIO
TITLE "Gambades"
PERFORMER "Erik Satie"
REM COMPOSER ""
ISRC FRZ140811310
INDEX 00 00:47:68
FILE "07. Gambades.wav" WAVE
INDEX 01 00:00:00
TRACK 08 AUDIO
TITLE "Nocturnes - I. Doux et calme"
PERFORMER "Erik Satie"
REM COMPOSER ""
ISRC FRZ110902038
INDEX 00 01:35:17
FILE "08. Nocturnes - I. Doux et calme.wav" WAVE
INDEX 01 00:00:00
FILE "09. Nocturnes - II. Simplement.wav" WAVE
TRACK 09 AUDIO
TITLE "Nocturnes - II. Simplement"
PERFORMER "Erik Satie"
REM COMPOSER ""
ISRC FRZ110902039
INDEX 01 00:00:00
FILE "10. Nocturnes - III. Un peu mouvementé.wav" WAVE
TRACK 10 AUDIO
TITLE "Nocturnes - III. Un peu mouvementé"
PERFORMER "Erik Satie"
REM COMPOSER ""
ISRC FRZ110902040
INDEX 01 00:00:00
FILE "11. Nocturnes - IV. Mystérieux et tendre.wav" WAVE
TRACK 11 AUDIO
TITLE "Nocturnes - IV. Mystérieux et tendre"
PERFORMER "Erik Satie"
REM COMPOSER ""
ISRC FRZ110902041
INDEX 01 00:00:00
FILE "12. Nocturnes - V..wav" WAVE
TRACK 12 AUDIO
TITLE "Nocturnes - V."
PERFORMER "Erik Satie"
REM COMPOSER ""
ISRC FRZ110902042
INDEX 01 00:00:00
TRACK 13 AUDIO
TITLE "Nocturnes - VI."
PERFORMER "Erik Satie"
REM COMPOSER ""
ISRC GBBBA0100156
INDEX 00 02:13:20
FILE "13. Nocturnes - VI..wav" WAVE
INDEX 01 00:00:00
TRACK 14 AUDIO
TITLE "Six Gnossiennes - I. Lent"
PERFORMER "Erik Satie"
REM COMPOSER ""
ISRC FRZ110902205
INDEX 00 01:23:48
FILE "14. Six Gnossiennes - I. Lent.wav" WAVE
INDEX 01 00:00:00
FILE "15. Six Gnossiennes - II. Avec étonnement.wav" WAVE
TRACK 15 AUDIO
TITLE "Six Gnossiennes - II. Avec étonnement"
PERFORMER "Erik Satie"
REM COMPOSER ""
ISRC FRZ110902208
INDEX 01 00:00:00
FILE "16. Six Gnossiennes - III. Lent.wav" WAVE
TRACK 16 AUDIO
TITLE "Six Gnossiennes - III. Lent"
PERFORMER "Erik Satie"
REM COMPOSER ""
ISRC FRZ110902206
INDEX 01 00:00:00
FILE "17. Six Gnossiennes - IV. Lent.wav" WAVE
TRACK 17 AUDIO
TITLE "Six Gnossiennes - IV. Lent"
PERFORMER "Erik Satie"
REM COMPOSER ""
ISRC FRZ110902207
INDEX 01 00:00:00
FILE "18. Six Gnossiennes - V. Modéré.wav" WAVE
TRACK 18 AUDIO
TITLE "Six Gnossiennes - V. Modéré"
PERFORMER "Erik Satie"
REM COMPOSER ""
ISRC FRZ110902204
INDEX 01 00:00:00
FILE "19. Six Gnossiennes - VI. Avec conviction et avec une tristesse rigoureuse.wav" WAVE
TRACK 19 AUDIO
TITLE "Six Gnossiennes - VI. Avec conviction et avec une tristesse rigoureuse"
PERFORMER "Erik Satie"
REM COMPOSER ""
ISRC FRZ110902209
INDEX 01 00:00:00
TRACK 20 AUDIO
TITLE "Gnossienne No. 7"
PERFORMER "Erik Satie"
REM COMPOSER ""
ISRC GBBBB0105508
INDEX 00 01:13:15
FILE "20. Gnossienne No. 7.wav" WAVE
INDEX 01 00:00:00
TRACK 21 AUDIO
TITLE "Croquis et agaceries d'un gros bonhomme en bois - I. Tyrolienne turque"
PERFORMER "Erik Satie"
REM COMPOSER ""
ISRC FRZ110902158
INDEX 00 04:50:48
FILE "21. Croquis et agaceries d'un gros bonhomme en bois - I. Tyrolienne turque.wav" WAVE
INDEX 01 00:00:00
FILE "22. Croquis et agaceries d'un gros bonhomme en bois - II. Danse maigre (à la manière de ces messieurs).wav" WAVE
TRACK 22 AUDIO
TITLE "Croquis et agaceries d'un gros bonhomme en bois - II. Danse maigre (à la mani..."
PERFORMER "Erik Satie"
REM COMPOSER ""
ISRC FRZ110902159
INDEX 01 00:00:00
FILE "23. Croquis et agaceries d'un gros bonhomme en bois - III. Españaña (sorte de valse).wav" WAVE
TRACK 23 AUDIO
TITLE "Croquis et agaceries d'un gros bonhomme en bois - III. Españaña (sorte de valse)"
PERFORMER "Erik Satie"
REM COMPOSER ""
ISRC FRZ110902160
INDEX 01 00:00:00
FILE "24. Descriptions automatiques - I. Sur un vaisseau.wav" WAVE
TRACK 24 AUDIO
TITLE "Descriptions automatiques - I. Sur un vaisseau"
PERFORMER "Erik Satie"
REM COMPOSER ""
ISRC FRZ110902152
INDEX 01 00:00:00
FILE "25. Descriptions automatiques - II. Sur une lanterne.wav" WAVE
TRACK 25 AUDIO
TITLE "Descriptions automatiques - II. Sur une lanterne"
PERFORMER "Erik Satie"
REM COMPOSER ""
ISRC FRZ110902153
INDEX 01 00:00:00
FILE "26. Descriptions automatiques - III. Sur un casque.wav" WAVE
TRACK 26 AUDIO
TITLE "Descriptions automatiques - III. Sur un casque"
PERFORMER "Erik Satie"
REM COMPOSER ""
ISRC FRZ110902154
INDEX 01 00:00:00
FILE "27. Vieux sequins et vielles cuirasses - I. Chez le marchand d'or (Venise XIIIe siècle).wav" WAVE
TRACK 27 AUDIO
TITLE "Vieux sequins et vielles cuirasses - I. Chez le marchand d'or (Venise XIIIe s..."
PERFORMER "Erik Satie"
REM COMPOSER ""
ISRC FRZ110902164
INDEX 01 00:00:00
FILE "28. Vieux sequins et vielles cuirasses - II. Danse cuirassée (Période grecque).wav" WAVE
TRACK 28 AUDIO
TITLE "Vieux sequins et vielles cuirasses - II. Danse cuirassée (Période grecque)"
PERFORMER "Erik Satie"
REM COMPOSER ""
ISRC FRZ110902165
INDEX 01 00:00:00
FILE "29. Vieux sequins et vielles cuirasses - III. La défaite de Cimbres (Cauchemar).wav" WAVE
TRACK 29 AUDIO
TITLE "Vieux sequins et vielles cuirasses - III. La défaite de Cimbres (Cauchemar)"
PERFORMER "Erik Satie"
REM COMPOSER ""
ISRC FRZ110902166
INDEX 01 00:00:00
FILE "30. Les trois valses distinguées du précieux dégoûté - I. Sa taille.wav" WAVE
TRACK 30 AUDIO
TITLE "Les trois valses distinguées du précieux dégoûté - I. Sa taille"
PERFORMER "Erik Satie"
REM COMPOSER ""
ISRC FRZ110902201
INDEX 01 00:00:00
FILE "31. Les trois valses distinguées du précieux dégoûté - II. Son binocle.wav" WAVE
TRACK 31 AUDIO
TITLE "Les trois valses distinguées du précieux dégoûté - II. Son binocle"
PERFORMER "Erik Satie"
REM COMPOSER ""
ISRC FRZ110902202
INDEX 01 00:00:00
FILE "32. Les trois valses distinguées du précieux dégoûté - III. Ses jambes.wav" WAVE
TRACK 32 AUDIO
TITLE "Les trois valses distinguées du précieux dégoûté - III. Ses jambes"
PERFORMER "Erik Satie"
REM COMPOSER ""
ISRC FRZ110902203
INDEX 01 00:00:00
TRACK 33 AUDIO
TITLE "Trois Sarabandes - No. 1"
PERFORMER "Erik Satie"
REM COMPOSER ""
ISRC FRZ110902021
INDEX 00 00:38:36
FILE "33. Trois Sarabandes - No. 1.wav" WAVE
INDEX 01 00:00:00
FILE "34. Trois Sarabandes - No. 2.wav" WAVE
TRACK 34 AUDIO
TITLE "Trois Sarabandes - No. 2"
PERFORMER "Erik Satie"
REM COMPOSER ""
ISRC FRZ110902023
INDEX 01 00:00:00
FILE "35. Trois Sarabandes - No. 3.wav" WAVE
TRACK 35 AUDIO
TITLE "Trois Sarabandes - No. 3"
PERFORMER "Erik Satie"
REM COMPOSER ""
ISRC FRZ110902025
INDEX 01 00:00:00

Credits

Arranged By – Andrew Cornall (tracks: 5-43), Darius Milhaud (tracks: 8-1 to 8-5), Hans Ourdine (tracks: 6-39, 7-6)
Arranged By [Revised By] – Robert Caby (tracks: 5-34 to 5-39, 7-7 to 7-48), Robert Orledge (tracks: 3-13)
Baritone Vocals – Gabriel Bacquier (tracks: 9-9 to 9-11, 9-31 to 9-33)
Baritone Vocals [Golo] – Jean-Christophe Benoit (tracks: 10-8 to 10-11)
Choir – Chœur René Duclos* (tracks: 10-1 to 10-7)
Chorus – Chœr Du Théâtre National De L'Opéra De Paris* (tracks: 10-8 to 10-11)
Chorus Master – Jean Laforge (tracks: 10-8 to 10-11)
Composed By, Graphics [Drawings], Liner Notes [Writings] – Erik Satie
Conductor – Aldo Ciccolini (tracks: 1-55, 2-10), Bernard Desgraupes (tracks: 1-22 to 1-42), Jules Laforge* (tracks: 10-1 to 10-7), Louis Auriacombe (tracks: 2-1 to 2-6), Marius Constant (tracks: 1-1, 1-19 to 1-21), Michel Plasson
(tracks: 1-2 to 1-18), Pierre Dervaux (2) (tracks: 1-43 to 1-54, 2-7 to 2-9)
Ensemble – Ensemble Ars Nova (tracks: 1-1, 1-19 to 1-21), Ensemble Erwartung (tracks: 1-22 to 1-42), Solistes De L'Orchestre Des Concerts Lamoureux* (tracks: 2-10)
Instrumentation By – Darius Milhaud (tracks: 1-10 to 1-14), Roger Désormière (tracks: 10-8 to 10-11)
Libretto By – Erik Satie (tracks: 2-10), J.P. Contamine de Latour (tracks: 10-8 to 10-11), Plato (5) (tracks: 2-7 to 2-9)
Liner Notes – Jean-Charles Hoffelé
Liner Notes [English Translation] – Michèle Fajtmann
Liner Notes [German Translation] – Dorle Ellmers
Liner Notes [Poem] – J.P. Contamine de Latour
Narrator – Pierre Bertin (tracks: 10-8 to 10-11), Raymond Devos (tracks: 4-59 to 4-61)
Orchestra – Orchestre De La Société Des Concerts Du Conservatoire (tracks: 2-1 to 2-6), Orchestre De Paris (tracks: 1-43 to 1-54, 2-7 to 2-9), Orchestre Des Concerts Lamoureux (tracks: 1-55), Orchestre Du Capitole Du Toulouse* (tracks:
1-2 to 1-18)
Orchestrated By – Claude Debussy (tracks: 1-2, 1-3), Francis Poulenc (tracks: 1-5)
Organ – Gaston Litaize (tracks: 10-1 to 10-7)
Painting [Relâche] – Francis Picabia
Photography [Gedda] – Foto Fayer
Photography [Ragtime Parade Cover], Photography [La Diva De L'Empire Title Page] – akg-images
Photography By [Dervaux] – Jacques Verroust
Photography By [Mesplé] – Gérard Delrieu
Photography By [Plasson] – Reg Wilson
Photography By [Queffélec] – Peter Mountain
Photography By [Tharaud] – Marco Borggreve
Photography By [Thibaudet] – Michael Tamarro
Piano – Aldo Ciccolini (tracks: 3-1, 3-8 to 3-12, 3-14 to 3-19, 3-21 to 3-35, 4-14 to 4-37, 5-1 to 5-41, 5-45 to 6-36, 7-7 to 7-48, 8-50, 8-51, 9-2 to 9-33), Alexandre Tharaud (tracks: 3-3 to 3-7, 8-48, 8-49, 9-34), Anne Queffélec
(tracks: 4-1 to 4-13, 4-38 to 4-58), Catherine Collard (tracks: 4-7 to 4-13), Dominique Merlet (tracks: 8-45 to 8-47), Fabrice Planchat (tracks: 9-1), Gabriel Tacchino (tracks: 4-14 to 4-18, 5-10 to 5-12, 5-25 to 5-31), Jean-Pierre
Armengaud (tracks: 1-15 to 1-18, 8-1 to 8-47, 9-35 to 9-40), Jean-Yves Thibaudet (tracks: 3-13, 3-20, 5-42 to 5-44, 6-37 to 6-39, 7-1 to 7-6), Michel Legrand (tracks: 3-2, 4-59 to 4-62)
Soprano Vocals – Anne-Sophie Schmidt (tracks: 9-35 to 9-40), Mady Mesplé (tracks: 9-2 to 9-8, 9-17 to 9-21, 9-27 to 9-30)
Soprano Vocals [Alcibiade] – Danielle Millet (tracks: 2-7 to 2-9)
Soprano Vocals [Geneviève] – Mady Mesplé (tracks: 10-8 to 10-11)
Soprano Vocals [Phèdre] – Andrée Esposito (tracks: 2-7 to 2-9)
Soprano Vocals [Phédon] – Mady Mesplé (tracks: 2-7 to 2-9)
Soprano Vocals [Socrate] – Andréa Guiot (tracks: 2-7 to 2-9)
Tenor Vocals – Nicolai Gedda (tracks: 9-12 to 9-16, 9-23 to 9-26)
Translated By [Libretto] – Victor Cousin (tracks: 2-7 to 2-9)
Trumpet – David Guerrier (tracks: 8-48)
Violin – Isabelle Faust (tracks: 8-49), Yan Pascal Tortelier (tracks: 8-50)
Vocals – Juliette (4) (tracks: 9-34)
Voice – Pierre Colombet (tracks: 9-1)
Voice Actor [Astolpho] – Joseph-Marie Falcucci (tracks: 2-10)
Voice Actor [Baron Méduse] – Pierre Bertin (tracks: 2-10)
Voice Actor [Frisette] – Marie Laurence (tracks: 2-10)
Voice Actor [Polycarpe] – Hubert Deschamps (tracks: 2-10)
Words By – Alphonse De Lamartine (tracks: 9-13), Anonymous (tracks: 9-15, 9-34), Catulle Mendès (tracks: 9-18), D. Durante (tracks: 9-33), Dominique Bonnaud (tracks: 9-21), Erik Satie (tracks: 9-1, 9-9 to 9-11), Henry Pacory (tracks: 9
-8, 9-26), J.P. Contamine de Latour (tracks: 9-17, 9-19, 9-27 to 9-29), Jean Cocteau (tracks: 9-14), Léon-Paul Fargue (tracks: 9-2 to 9-7), M. God* (tracks: 9-20), Numa Blès (tracks: 9-21), Raymond Radiguet (tracks: 9-16), René Chalupt
(tracks: 9-30), Joseph Peladan* (tracks: 9-22), Vincent Hyspa (tracks: 9-12, 9-31, 9-32, 9-35 to 9-40)
Доп. информация: https://www.discogs.com/Erik-Satie-Tout-Satie-Erik-Satie-Complete-Edition/release/9536040
[torrents24.ru].t64897.torrent 
Торрент: Зарегистрирован [ 2018-12-05 17:50 ] · A3E3817137631C904AA5751B0961D87E4026CCC5

Скачать .torrent

Скачать

60 KB

Статус: проверено
Скачан: 0 раз
Размер: 2,58 GB

Профиль [ЛС]
Показать сообщения:    

Текущее время: 19-Дек 18:53

Часовой пояс: UTC + 3



Вы не можете начинать темы
Вы не можете отвечать на сообщения
Вы не можете редактировать свои сообщения
Вы не можете удалять свои сообщения
Вы не можете голосовать в опросах
Вы не можете прикреплять файлы к сообщениям
Вы можете скачивать файлы