Статистика раздачи
Размер:  1,97 GB   |    Зарегистрирован:  14 дней   |    Скачан:  0 раз

Полного источника не было: Никогда

 
   
 
 

Domino ®

Пол:
Не указан
Стаж:
10 месяцев 11 дней
Сообщений:
632

Жизнь продолжается
Lâcher prise- Год выпуска: 2017
Страна: Канада
Жанр: трагикомедия
Продолжительность: ~ 00:20:00Перевод: Субтитры (русский перевод М.Кузиной, ECLAIR)Режиссёр: Стефан Лапуант / Stéphane Lapointe
В ролях: Софи Кадьё / Sophie Cadieux (Valérie), Антуан Аршамбо / Antoine Archambault (Thomas), Сильви Леонар / Sylvie Léonard (Madeleine), Симон Лакруа / Simon Lacroix (Éric), Эрик Полю / Eric Paulhus (Kevin), Эрик Бернье / Eric Bernier (Stephane), Жан-Моис Мартен / Jean-Moïse Martin (Policier Simon Phaneuf)
Описание: Дисциплинированная, организованная, гиперактивная, профессионал своего дела, разведенная мать маленького мальчика, который наполняет ее жизнь радостью, Валери однажды находит вошь в волосах сына - мелочь с непредвиденными последствиямми...
Доп. информация: Hot Bird (13.0°E) TV5MONDE Europe DVB-S
Награды: 9 премий "Жемо" 2017 Академии кино и телевидения Канады (лучшая комедия, лучший режиссер комедии, лучший сценарий комедии, лучший монтаж, лучшая комедийная актриса - Sophie Cadieux, лучшая актриса второго плана - Sylvie Leonard, и др.) + 8 номинаций; номинация на премию Banff Rockie Award за лучший комедийный телесериал Banff Television Festival 2017; премия "Жемо" 2018 лучшему режиссеру комедии; премия Banff Rockie Award за лучший комедийный телесериал Banff Television Festival 2018.
Качество: DVB
Формат: MKV
Видео: MPEG Video 2, 720x576@1024x576 (16:9), 25 fps, ~3077 kbps avg, 0.297 bit/pixel
Аудио: MPEG Audio 2, 2 ch, 48 kHz, 192 kbps - французский
Субтитры: русские, английские, французские, нидерландские, румынские, испанские - prerendered (IDX+SUB); английские, французские - softsub (SRT) - телетекст
Реклама: отсутствует

Список серий

Сезон 1, эпизод 01: Мелочь, которая убивает / Le détail qui tue (2016)
Сезон 1, эпизод 02: Сон / Dormir (2016)
Сезон 1, эпизод 03: Отказ / Déni (2016)
Сезон 1, эпизод 04: Похоть / Lust Actually (2016)

MediaInfo

General
Unique ID : 42421966519509872641586187041229216819 (0x1FEA2C6E8EB03538E641F1C983CB9C33)
Complete name : [apreder]Lacher_prise_s.1_ep.01(2016)DVB.mkv
Format : Matroska
Format version : Version 2
File size : 496 MiB
Duration : 20 min 47 s
Overall bit rate mode : Variable
Overall bit rate : 3 335 kb/s
Movie name : Lacher prise
Released date : 2017-01-09
Encoded date : UTC 2018-12-02 06:18:14
Writing application : mkvmerge v29.0.0 ('Like It Or Not') 64-bit
Writing library : libebml v1.3.6 + libmatroska v1.4.9
Cover : Yes
Attachments : cover.jpg / small_cover.jpg
ACTOR : Sophie Cadieux, Sylvie Leonard, Simon Lacroix
DIRECTOR : Stephane Lapointe
GENRE : Comedy
IMDB : tt6445622
KEYWORDS : rutracker.org
LAW_RATING : 16+
SUMMARY : s.1, ep.01 Le detail qui tue
Video
ID : 1
Format : MPEG Video
Format version : Version 2
Format profile : Main@Main
Format settings : CustomMatrix / BVOP
Format settings, BVOP : Yes
Format settings, Matrix : Custom
Format settings, GOP : M=4, N=12
Format settings, picture structure : Frame
Codec ID : V_MPEG2
Codec ID/Info : MPEG 1 or 2 Video
Duration : 20 min 47 s
Bit rate mode : Variable
Bit rate : 3 077 kb/s
Width : 720 pixels
Height : 576 pixels
Display aspect ratio : 16:9
Frame rate mode : Constant
Frame rate : 25.000 FPS
Standard : PAL
Color space : YUV
Chroma subsampling : 4:2:0
Bit depth : 8 bits
Scan type : Interlaced
Scan order : Top Field First
Compression mode : Lossy
Bits/(Pixel*Frame) : 0.297
Time code of first frame : 00:00:00:00
Time code source : Group of pictures header
GOP, Open/Closed : Open
GOP, Open/Closed of first frame : Closed
Stream size : 457 MiB (92%)
Default : Yes
Forced : No
Audio
ID : 2
Format : MPEG Audio
Format version : Version 1
Format profile : Layer 2
Format settings : Joint stereo / Intensity Stereo + MS Stereo
Codec ID : A_MPEG/L2
Codec ID/Hint : MP2
Duration : 20 min 47 s
Bit rate mode : Constant
Bit rate : 192 kb/s
Channel(s) : 2 channels
Sampling rate : 48.0 kHz
Compression mode : Lossy
Stream size : 28.5 MiB (6%)
Language : French
Default : Yes
Forced : No
Text #1
ID : 3
Format : VobSub
Codec ID : S_VOBSUB
Codec ID/Info : Picture based subtitle format used on DVDs
Language : Russian
Default : No
Forced : No
Text #2
ID : 4
Format : VobSub
Codec ID : S_VOBSUB
Codec ID/Info : Picture based subtitle format used on DVDs
Language : English
Default : No
Forced : No
Text #3
ID : 5
Format : UTF-8
Codec ID : S_TEXT/UTF8
Codec ID/Info : UTF-8 Plain Text
Title : Teletexte
Language : English
Default : No
Forced : No
Text #4
ID : 6
Format : VobSub
Codec ID : S_VOBSUB
Codec ID/Info : Picture based subtitle format used on DVDs
Language : French
Default : No
Forced : No
Text #5
ID : 7
Format : UTF-8
Codec ID : S_TEXT/UTF8
Codec ID/Info : UTF-8 Plain Text
Title : Teletexte
Language : French
Default : No
Forced : No
Text #6
ID : 8
Format : VobSub
Codec ID : S_VOBSUB
Codec ID/Info : Picture based subtitle format used on DVDs
Language : Dutch
Default : No
Forced : No
Text #7
ID : 9
Format : VobSub
Codec ID : S_VOBSUB
Codec ID/Info : Picture based subtitle format used on DVDs
Language : Romanian
Default : No
Forced : No
Text #8
ID : 10
Format : VobSub
Codec ID : S_VOBSUB
Codec ID/Info : Picture based subtitle format used on DVDs
Language : Spanish
Default : No
Forced : No

Скриншоты


Резервные скриншоты


-

Внимание! Раздача ведётся путём добавления новых выпусков

Внимание! Раздача ведётся путём добавления новых выпусков; при каждом добавлении создаётся новый торрент. Чтобы начать докачку нового выпуска, пользователям необходимо сделать следующее:
(1) остановить скачивание,
(2) удалить старый торрент у себя из клиента (старые серии удалять не надо),
(3) скачать новый торрент и запустить его у себя в клиенте вместо старого, при этом указать клиенту путь в старую папку куда и должно происходить скачивание новых выпусков.
Ваш клиент при этом должен произвести хеширование (проверку) старой папки (если не производит сам - помогите ему сделать это). В результате он будет докачивать только те выпуски, которых у Вас ещё нет. Старые выпуски при этом не удаляются, а продолжают раздаваться!
Eсли Вы уже удалили старые выпуски, то предотвратить их повторную закачку можно, сняв галочки в соответствующих местах при запуске нового торрента. По возможности, желательно не удалять старые выпуски как можно дольше, чтобы релизёр не только продолжал раздавать старые выпуски, но и смог сконцентрироваться на новых.
- [4'414]
[torrents24.ru].t64718.torrent 
Торрент: Зарегистрирован [ 2018-12-05 00:30 ] · B1DA4409F822BD0C9B31C69077BA91AD8F80EB12

Скачать .torrent

Скачать

3 KB

Статус: проверено
Скачан: 0 раз
Размер: 1,97 GB

Профиль [ЛС]
Показать сообщения:    

Текущее время: 19-Дек 19:07

Часовой пояс: UTC + 3



Вы не можете начинать темы
Вы не можете отвечать на сообщения
Вы не можете редактировать свои сообщения
Вы не можете удалять свои сообщения
Вы не можете голосовать в опросах
Вы не можете прикреплять файлы к сообщениям
Вы можете скачивать файлы