Статистика раздачи
Размер:  1,58 GB   |    Зарегистрирован:  14 дней   |    Скачан:  1 раз

Полного источника не было: 2 дня 20 часов

 
   
 
 

Акробат ®

Пол:
Не указан
Стаж:
10 месяцев 11 дней
Сообщений:
194

Томас и его друзья: Кругосветное путешествие / Thomas & Friends: Big World! Big Adventures!
Страна: Великобритания
Жанр: Мультфильм, приключения, семейный, детский
Продолжительность: 01:21:15
Год выпуска: 2018
Перевод: Профессиональный (дублированный)
Русские субтитры: нет
Режиссёр: Дэвид Стотен / David Stoten
Описание: В новом приключении паровозик Томас отправляется в путешествие по миру!Томас мечтает стать первым паровозиком, совершившим путешествие по пяти континентам планеты. Он покидает Содор и отправляется в эпическое путешествие через пустыни, джунгли и опасные горы.Отважный герой увидит великолепные достопримечательности, о которых раньше не знал, а еще познакомится с паровозиком по имени Ния. Вместе они преодолеют множество преград и получат ценный урок о дружбе.
Семпл:https://yadi.sk/i/kCp_e1DoMyozag
Качество: DVB
Формат: TS
Видео: AVC 720x576 25fps 2 452 Kbps
Аудио: MPEG Audio 48000Hz stereo 192kbps
Субтитры: Отсутствуют
Доп. информация: есть ошибки в видеопотоке

Подробные технические данные

General
ID : 1 (0x1)
Complete name : E:\YandexDisk\test_edit.ts
Format : MPEG-TS
File size : 1.58 GiB
Duration : 1 h 21 min
Overall bit rate mode : Variable
Overall bit rate : 2 784 kb/s
Video
ID : 256 (0x100)
Menu ID : 1 (0x1)
Format : AVC
Format/Info : Advanced Video Codec
Format profile : Main@L3
Format settings : CABAC / 3 Ref Frames
Format settings, CABAC : Yes
Format settings, ReFrames : 3 frames
Format settings, GOP : M=4, N=28
Format settings, picture st : Frame
Codec ID : 27
Duration : 1 h 21 min
Bit rate : 2 452 kb/s
Width : 720 pixels
Height : 576 pixels
Display aspect ratio : 16:9
Frame rate : 25.000 FPS
Standard : Component
Color space : YUV
Chroma subsampling : 4:2:0
Bit depth : 8 bits
Scan type : Interlaced
Scan type, store method : Interleaved fields
Scan order : Top Field First
Bits/(Pixel*Frame) : 0.237
Stream size : 1.39 GiB (88%)
Color range : Limited
Color primaries : BT.601 PAL
Transfer characteristics : BT.470 System B/G
Matrix coefficients : BT.470 System B/G
Audio
ID : 257 (0x101)
Menu ID : 1 (0x1)
Format : MPEG Audio
Format version : Version 1
Format profile : Layer 2
Codec ID : 3
Duration : 1 h 21 min
Bit rate mode : Constant
Bit rate : 192 kb/s
Channel(s) : 2 channels
Sampling rate : 48.0 kHz
Frame rate : 41.667 FPS (1152 SPF)
Compression mode : Lossy
Delay relative to video : 12 ms
Stream size : 112 MiB (7%)
Menu
ID : 4096 (0x1000)
Menu ID : 1 (0x1)
Duration : 1 h 21 min
List : 256 (0x100) (AVC) / 257 (0x101) (MPEG Audio)
Service name : Service01
Service provider : FFmpeg
Service type : digital television

Скриншоты


[torrents24.ru].t64683.torrent 
Торрент: Зарегистрирован [ 2018-12-05 00:30 ] · 4932B67C8D756F63D4C401080B6E5C88EB99C2ED

Скачать .torrent

Скачать

64 KB

Статус: проверено
Скачан: 1 раз
Размер: 1,58 GB

Профиль [ЛС]
Показать сообщения:    

Текущее время: 19-Дек 19:28

Часовой пояс: UTC + 3



Вы не можете начинать темы
Вы не можете отвечать на сообщения
Вы не можете редактировать свои сообщения
Вы не можете удалять свои сообщения
Вы не можете голосовать в опросах
Вы не можете прикреплять файлы к сообщениям
Вы можете скачивать файлы