Статистика раздачи
Размер:  2,19 GB   |    Зарегистрирован:  14 дней   |    Скачан:  1 раз

Полного источника не было: 6 дней

 
   
 
 

Поля ®

Пол:
Не указан
Стаж:
10 месяцев 10 дней
Сообщений:
521


Aretha Franklin
WDR Studio L, Koln, Germany 1968


Жанр: Gospel, Rhythm & Blues, Soul
Продолжительность: 00:54:01
Год выпуска: 2018
Качество: HDTV
Разрешение видео/развертка: 720p
Контейнер: TS
Видео кодек: H.264
Аудио кодек: AAC
Видео: MPEG4 Video (H264) 1280x720 50fps 5 070 kb/s
Аудио: Dolby AC3 48000Hz stereo 448kbps

Треклист

00. Intro
01. You Are My Sunshine
02. I Can’t Get No Satisfaction
03. Night Life
04. (You Make Me Feel Like) A Natural Woman
05. Baby I Love You
06. Dr. Feelgood
07. Sweet Sweet Baby Since You've Been Gone
08. Good To Me As I Am To You
09. I Never Loved A Man The Way I Loved You
10. Chain Of Fools
11. Soul Serenade
12. Respect
13. Outro

Отчёт MediaInfo / BDInfo

General
ID : 1111 (0x457)
Complete name : E:\Aretha Franklin - Köln, Studio L 1968 (2018).ts
Format : MPEG-TS
File size : 2.19 GiB
Duration : 54 min 1 s
Overall bit rate mode : Variable
Overall bit rate : 5 809 kb/s
Video
ID : 5601 (0x15E1)
Menu ID : 28544 (0x6F80)
Format : AVC
Format/Info : Advanced Video Codec
Format profile : High@L4
Format settings : CABAC / 4 Ref Frames
Format settings, CABAC : Yes
Format settings, ReFrames : 4 frames
Format settings, GOP : M=8, N=32
Codec ID : 27
Duration : 54 min 1 s
Bit rate : 5 070 kb/s
Width : 1 280 pixels
Height : 720 pixels
Display aspect ratio : 16:9
Frame rate : 50.000 FPS
Color space : YUV
Chroma subsampling : 4:2:0
Bit depth : 8 bits
Scan type : Progressive
Bits/(Pixel*Frame) : 0.110
Stream size : 1.91 GiB (87%)
Audio
ID : 5606 (0x15E6)
Menu ID : 28544 (0x6F80)
Format : AC-3
Format/Info : Audio Coding 3
Commercial name : Dolby Digital
Codec ID : 6
Duration : 54 min 1 s
Bit rate mode : Constant
Bit rate : 448 kb/s
Channel(s) : 2 channels
Channel layout : L R
Sampling rate : 48.0 kHz
Frame rate : 31.250 FPS (1536 SPF)
Bit depth : 16 bits
Compression mode : Lossy
Delay relative to video : 116 ms
Stream size : 173 MiB (8%)
Language : German
Service kind : Complete Main
[torrents24.ru].t64635.torrent 
Торрент: Зарегистрирован [ 2018-12-05 00:30 ] · 2580307713A9F24DAF07D5C04204EE65CEEA83D0

Скачать .torrent

Скачать

11 KB

Статус: проверено
Скачан: 1 раз
Размер: 2,19 GB

Профиль [ЛС]
Показать сообщения:    

Текущее время: 19-Дек 18:46

Часовой пояс: UTC + 3



Вы не можете начинать темы
Вы не можете отвечать на сообщения
Вы не можете редактировать свои сообщения
Вы не можете удалять свои сообщения
Вы не можете голосовать в опросах
Вы не можете прикреплять файлы к сообщениям
Вы можете скачивать файлы