Статистика раздачи
Размер:  739 MB   |    Зарегистрирован:  14 дней   |    Скачан:  0 раз

Полного источника не было: Никогда

 
   
 
 

ingiz ®

Пол:
Не указан
Стаж:
10 месяцев 10 дней
Сообщений:
2042

Летние ночи / Les nuits d'été
Страна: Франция
Жанр: трагикомедия
Год выпуска: 2014
Продолжительность: 01:40:02
Перевод: Субтитры (перевод М.Лабори, Éclair Media)
Субтитры: русские, английские, французские, немецкие, нидерландские
Оригинальная аудиодорожка: французский
Режиссер: Марио Фанфани / Mario Fanfani
В ролях: Гийом де Тонкедек / Guillaume de Tonquédec (Michel / Mylène), Жанна Балибар / Jeanne Balibar (Hélène), Николя Бушо / Nicolas Bouchaud (Jean-Marie / Flavia), Матьё Спинози / Mathieu Spinosi (Quéméner / Chérubin), Клеман Сибони / Clément Sibony (Suzy Corridor), Серж Багдассарян / Serge Bagdassarian (Fee Clochette), Зази де Пари / Zazie De Paris (Hermine), Янник Шуара / Yannick Choirat (Georg Schaeffer / Yvonne)
Описание: 1959 год, Мец, Лотарингия. События происходят на фоне войны за независимость Алжира. Мишель - уважаемый нотариус, и у него идеальный брак с Элен. Но он хранит тяжелый секрет: каждые выходные он отправляется в свой второй дом и становится Миленой под присмотром Флавии, трансвестита и бывшего товарища по войне...
Доп. информация: Hot Bird (13.0°E) TV5MONDE Europe DVB-S. На территории РФ возрастное ограничение 18+.
Награды:
- специальная награда Венецианского кинофестиваля "Голубой лев" 2014;
- номинация на лучший французский полнометражный фильм в программе "Дни Венеции";
- номинация на Гран-при за лучший фильм Cheries-Cheris 2014;
- номинация на лучший фильм Transilvania International Film Festival 2015.
Источник: Рип с этой раздачи. Помимо куда меньшего размера обрезаны чёрные полосы по краям. Как можно видеть из x264 лога качество сжатия отличное. Если и есть какие-то проблемы, то они вызваны невысоким качеством самого источника.
Сэмпл: http://sendfile.su/1458637
Качество видео: SATRip
Формат видео: MKV
Видео: H264 564x572@800x572, 1.4, 25fps, 899 kb/s, 0.11b/pf
Аудио: AAC LC q0.45, 48khz, ~132kbps, 2ch
Формат субтитров: softsub (SRT)

MediaInfo

General
Format : Matroska
Format version : Version 4
File size : 739 MiB
Duration : 1 h 40 min
Overall bit rate : 1 032 kb/s
Encoded date : UTC 2018-11-27 10:54:47
Writing application : mkvmerge v28.2.0 ('The Awakening') 64-bit
Writing library : libebml v1.3.6 + libmatroska v1.4.9
Cover : Yes
Attachments : cover.jpg / small_cover.jpg
Video
ID : 1
Format : AVC
Format/Info : Advanced Video Codec
Format profile : High@L4.1
Format settings : CABAC / 8 Ref Frames
Format settings, CABAC : Yes
Format settings, ReFrames : 8 frames
Codec ID : V_MPEG4/ISO/AVC
Duration : 1 h 40 min
Bit rate : 899 kb/s
Width : 564 pixels
Height : 572 pixels
Display aspect ratio : 1.399
Original display aspect ratio : 0.986
Frame rate mode : Constant
Frame rate : 25.000 FPS
Color space : YUV
Chroma subsampling : 4:2:0
Bit depth : 8 bits
Scan type : Progressive
Bits/(Pixel*Frame) : 0.111
Stream size : 643 MiB (87%)
Writing library : x264 core 155 r2901 7d0ff22
Encoding settings : cabac=1 / ref=8 / deblock=1:0:0 / analyse=0x3:0x133 / me=umh / subme=9 / psy=1 / psy_rd=1.00:0.00 / mixed_ref=1 / me_range=16 / chroma_me=1 / trellis=2 / 8x8dct=1 / cqm=0 / deadzone=21,11 / fast_pskip=1 / chroma_qp_offset=-2 / threads=12 / lookahead_threads=1 / sliced_threads=0 / nr=0 / decimate=1 / interlaced=0 / bluray_compat=0 / constrained_intra=0 / bframes=3 / b_pyramid=2 / b_adapt=2 / b_bias=0 / direct=3 / weightb=1 / open_gop=0 / weightp=2 / keyint=250 / keyint_min=25 / scenecut=40 / intra_refresh=0 / rc_lookahead=60 / rc=2pass / mbtree=1 / bitrate=899 / ratetol=1.0 / qcomp=0.60 / qpmin=0 / qpmax=69 / qpstep=4 / cplxblur=20.0 / qblur=0.5 / vbv_maxrate=62500 / vbv_bufsize=78125 / nal_hrd=none / filler=0 / ip_ratio=1.40 / aq=1:1.00
Default : Yes
Forced : No
Audio
ID : 2
Format : AAC LC
Format/Info : Advanced Audio Codec Low Complexity
Codec ID : A_AAC-2
Duration : 1 h 40 min
Bit rate : 132 kb/s
Channel(s) : 2 channels
Channel layout : L R
Sampling rate : 48.0 kHz
Frame rate : 46.875 FPS (1024 SPF)
Compression mode : Lossy
Delay relative to video : 9 ms
Stream size : 93.0 MiB (13%)
Language : French
Default : Yes
Forced : No
Text #1
ID : 3
Format : UTF-8
Codec ID : S_TEXT/UTF8
Codec ID/Info : UTF-8 Plain Text
Duration : 1 h 39 min
Bit rate : 57 b/s
Count of elements : 909
Stream size : 42.0 KiB (0%)
Language : Russian
Default : No
Forced : No
Text #2
ID : 4
Format : UTF-8
Codec ID : S_TEXT/UTF8
Codec ID/Info : UTF-8 Plain Text
Duration : 1 h 39 min
Bit rate : 34 b/s
Count of elements : 939
Stream size : 25.1 KiB (0%)
Language : English
Default : No
Forced : No
Text #3
ID : 5
Format : UTF-8
Codec ID : S_TEXT/UTF8
Codec ID/Info : UTF-8 Plain Text
Duration : 1 h 39 min
Bit rate : 39 b/s
Count of elements : 900
Stream size : 29.2 KiB (0%)
Language : French
Default : No
Forced : No
Text #4
ID : 6
Format : UTF-8
Codec ID : S_TEXT/UTF8
Codec ID/Info : UTF-8 Plain Text
Duration : 1 h 39 min
Bit rate : 36 b/s
Count of elements : 909
Stream size : 26.5 KiB (0%)
Language : German
Default : No
Forced : No
Text #5
ID : 7
Format : UTF-8
Codec ID : S_TEXT/UTF8
Codec ID/Info : UTF-8 Plain Text
Duration : 1 h 39 min
Bit rate : 34 b/s
Count of elements : 896
Stream size : 24.9 KiB (0%)
Language : Dutch
Default : No
Forced : No

x264 log

---[Information] [25.11.2018 21:06:18] y4m [info]: 564x572p 1:1 @ 25/1 fps (cfr)
---[Information] [25.11.2018 21:06:18] x264 [info]: using SAR=1/1
---[Information] [25.11.2018 21:06:18] x264 [info]: using cpu capabilities: MMX2 SSE2Fast SSSE3 SSE4.2 AVX FMA3 BMI2 AVX2
---[Information] [25.11.2018 21:06:18] x264 [info]: profile High, level 4.1
---[Information] [25.11.2018 21:41:08] x264 [info]: frame I:693 Avg QP:11.94 size: 37588
---[Information] [25.11.2018 21:41:08] x264 [info]: frame P:39762 Avg QP:14.53 size: 10621
---[Information] [25.11.2018 21:41:08] x264 [info]: frame B:109607 Avg QP:17.86 size: 2063

---[Information] [25.11.2018 21:41:08] x264 [info]: consecutive B-frames: 1.3% 2.6% 4.4% 91.7%
---[Information] [25.11.2018 21:41:08] x264 [info]: mb I I16..4: 12.6% 61.5% 25.9%
---[Information] [25.11.2018 21:41:08] x264 [info]: mb P I16..4: 2.6% 9.5% 2.1% P16..4: 40.9% 17.5% 12.4% 0.6% 0.2% skip:14.2%
---[Information] [25.11.2018 21:41:08] x264 [info]: mb B I16..4: 0.3% 0.7% 0.2% B16..8: 35.4% 5.3% 1.0% direct: 4.0% skip:53.2% L0:38.8% L1:50.1% BI:11.1%
---[Information] [25.11.2018 21:41:08] x264 [info]: 8x8 transform intra:65.5% inter:45.3%
---[Information] [25.11.2018 21:41:08] x264 [info]: direct mvs spatial:95.5% temporal:4.5%
---[Information] [25.11.2018 21:41:08] x264 [info]: coded y,uvDC,uvAC intra: 65.0% 69.4% 48.6% inter: 14.6% 16.6% 3.0%
---[Information] [25.11.2018 21:41:08] x264 [info]: i16 v,h,dc,p: 66% 13% 7% 14%
---[Information] [25.11.2018 21:41:08] x264 [info]: i8 v,h,dc,ddl,ddr,vr,hd,vl,hu: 30% 9% 16% 5% 7% 10% 5% 10% 7%
---[Information] [25.11.2018 21:41:08] x264 [info]: i4 v,h,dc,ddl,ddr,vr,hd,vl,hu: 29% 17% 11% 6% 7% 10% 6% 7% 6%
---[Information] [25.11.2018 21:41:08] x264 [info]: i8c dc,h,v,p: 34% 20% 35% 11%
---[Information] [25.11.2018 21:41:08] x264 [info]: Weighted P-Frames: Y:0.4% UV:0.0%
---[Information] [25.11.2018 21:41:08] x264 [info]: ref P L0: 55.2% 8.1% 14.5% 5.3% 4.9% 5.2% 4.4% 2.5% 0.0% 0.0%
---[Information] [25.11.2018 21:41:08] x264 [info]: ref B L0: 81.1% 11.4% 3.4% 1.6% 1.2% 0.8% 0.4%
---[Information] [25.11.2018 21:41:08] x264 [info]: ref B L1: 93.1% 6.9%
---[Information] [25.11.2018 21:41:08] x264 [info]: kb/s:899.01
---[Information] [25.11.2018 21:41:08] encoded 150062 frames, 71.79 fps, 899.01 kb/s

Скриншот c названием фильма

Скриншоты

[torrents24.ru].t64607.torrent 
Торрент: Зарегистрирован [ 2018-12-05 00:30 ] · 7FFC0C968DD42610A90CC9947EBE61A5BFA34647

Скачать .torrent

Скачать

15 KB

Статус: проверено
Скачан: 0 раз
Размер: 739 MB

Профиль [ЛС]
Показать сообщения:    

Текущее время: 19-Дек 18:30

Часовой пояс: UTC + 3



Вы не можете начинать темы
Вы не можете отвечать на сообщения
Вы не можете редактировать свои сообщения
Вы не можете удалять свои сообщения
Вы не можете голосовать в опросах
Вы не можете прикреплять файлы к сообщениям
Вы можете скачивать файлы