Статистика раздачи
Размер:  4,09 GB   |    Зарегистрирован:  14 дней   |    Скачан:  0 раз

Полного источника не было: Никогда

 
   
 
 

Dream ®

Пол:
Не указан
Стаж:
10 месяцев 15 дней
Сообщений:
752

Земля любви, земля надежды / Terra Speranza
Год выпуска: 2002
Страна: Бразилия
Производство: Globo TV
Жанр: Мелодрама
Серии (количество): 220
Продолжительность: 00:45:00 одна серия
Перевод: профессиональный многоголосый закадровый (Первый канал)
Субтитры: отсутствуют
Режиссёр: Луис Фернанду Карвальо
В ролях: Рейналду Джаничини, Присцила Фантин, Ана Паула Арозио, Раул Кортес, Антониу Фагундес, Жозе Майер, Симоне Споладоре, Мария Фернанда Кандиду, Отон Бастос, Габриэла Дуарте, Валмор Шагас, Фернанда Монтенегро и другие.
Описание: Италия, 1931 год. Двое молодых людей из разных миров полюбили друг друга. Тони - романтичный юноша, сын пианиста Дженаро, который с раннего детства прививал ему любовь к музыке. Мария - дочь помещика Джулиано, очень жестокого и деспотичного человека, который прочит Марию в жены своему другу Мартино. Тони ,понимая, что ни его родители, ни родители Марии не примут их любовь, решает имигрировать в Бразилию, страну, о которой много слышал от своего дяди Джузеппе. Там Тони надеется разбогатеть, и обещает Марии вернуться за ней. Однако в Бразилии, Тони влюбляется в еврейскую девушку Камилли. Мария выходит замуж за Мартино, и после смерти своего отца вместе с мужем приезжает в Бразилию. Там, вскоре овдовев, Мария мечтает найти Тони, и показать ему их сына, которого она родила в Италии. Но Мария не знает, что Тони женился, и уже и не надеется о встрече с ней...
Сэмпл: http://multi-up.com/1215791
Качество: SATRip
Формат: AVI
Видео кодек: XviD
Аудио кодек: AC3
Видео: 720x400, 25 fps, XviD 1500 kbps, 0.150 bit/pixel
Аудио: 48000 Hz, AC3, 2 ch, 192 kb/s
Реклама: отсутствует

MI

Общее
Полное имя : D:\Земля любви, земля надежды\001 Terra Speranza new.avi
Формат : AVI
Формат/Информация : Audio Video Interleave
Размер файла : 465 Мбайт
Продолжительность : 49 м. 19 с.
Общий поток : 1319 Кбит/сек
Видео
Идентификатор : 0
Формат : MPEG-4 Visual
Профиль формата : Advanced Simple@L5
Настройки формата : BVOP2
Параметр BVOP формата : 2
Параметр QPel формата : Нет
Параметр GMC формата : Без точки перехода
Параметр матрицы формата : Default (H.263)
Идентификатор кодека : XVID
Идентификатор кодека/Подсказка : XviD
Продолжительность : 49 м. 19 с.
Битрейт : 1117 Кбит/сек
Ширина : 720 пикселей
Высота : 400 пикселей
Соотношение сторон : 16:9
Частота кадров : 25,000 кадров/сек
Цветовое пространство : YUV
Субдискретизация насыщенности : 4:2:0
Битовая глубина : 8 бит
Тип развёртки : Прогрессивная
Метод сжатия : С потерями
Бит/(Пиксели*Кадры) : 0.155
Размер потока : 394 Мбайт (85%)
Библиотека кодирования : XviD 1.2.1 (UTC 2008-12-04)
Аудио
Идентификатор : 1
Формат : AC-3
Формат/Информация : Audio Coding 3
Идентификатор кодека : 2000
Продолжительность : 49 м. 19 с.
Вид битрейта : Постоянный
Битрейт : 192 Кбит/сек
Каналы : 2 канала
Расположение каналов : Front: L R
Частота : 48,0 КГц
Частота кадров : 31,250 кадров/сек (1536 SPF)
Битовая глубина : 16 бит
Метод сжатия : С потерями
Размер потока : 67,7 Мбайт (15%)
Выравнивание : Разделение по промежуткам
Продолжительность промежутка : 40 мс. (1,00 видеокадр)
Время предзагрузки промежутка : 500 мс.
ServiceKind/String : Complete Main

Скриншоты

Внимание! Раздача ведётся путём добавления новых серий

Внимание! Раздача ведётся путём добавления новых серий; при каждом добавлении создаётся новый торрент. Чтобы начать докачку новой серии, пользователям необходимо сделать следующее: (1) остановить скачивание, (2) удалить старый торрент у себя из клиента (старые серии удалять не надо), (3) скачать новый торрент и запустить его у себя в клиенте вместо старого, при этом указать клиенту путь в старую папку куда и должно происходить скачивание новых серий. Ваш клиент при этом должен произвести хеширование (проверку) старой папки (если не производит сам - помогите ему сделать это), и будет докачивать только те серии которых у вас ещё нет. Старые серии при этом не удаляются, а продолжают раздаваться! Eсли вы уже удалили старые серии, то предотвратить повторную закачку старых серий можно, отжав галочку в соответствующих местах при запуске нового торрента. По возможности, желательно не удалять старые серии как можно дольше чтобы релизёр не столько продолжал раздавать старые серии, а смог сконцентрироваться на новых.
Предыдущие и альтернативные раздачи
[torrents24.ru].t64288.torrent 
Торрент: Зарегистрирован [ 2018-12-04 21:30 ] · F72A120A3EBB225D85FC87E3B9918B0397C19B1E

Скачать .torrent

Скачать

21 KB

Статус: проверено
Скачан: 0 раз
Размер: 4,09 GB

Профиль [ЛС]
Показать сообщения:    

Текущее время: 19-Дек 18:30

Часовой пояс: UTC + 3



Вы не можете начинать темы
Вы не можете отвечать на сообщения
Вы не можете редактировать свои сообщения
Вы не можете удалять свои сообщения
Вы не можете голосовать в опросах
Вы не можете прикреплять файлы к сообщениям
Вы можете скачивать файлы