Статистика раздачи
Размер:  18,75 GB   |    Зарегистрирован:  14 дней   |    Скачан:  0 раз

Полного источника не было: Никогда

 
   
 
 

Ириска ®

Пол:
Не указан
Стаж:
10 месяцев 11 дней
Сообщений:
231

Чудо Техники с Сергеем Малозёмовым
Год выпуска: 2018 (январь-ноябрь)
Кол-во выпусков: 35 (210-244)
Страна: Россия
Телеканал: НТВ
Жанр: научно-популярная телепередача
Продолжительность: ~00:39:00 на выпуск
Перевод: Не требуется
Русские субтитры: нет
Оригинальная аудиодорожка: русский
Описание:
«Чудо техники» - это доходчивый и интересный рассказ о новейших научных разработках и технологиях, которые способны поменять или уже меняют нашу жизнь.
Автор проекта - Сергей Малозёмов - репортер с медицинским образованием, который всегда в курсе последних научных исследований и одним из первых узнает о значимых открытиях. Специально для зрителей НТВ он вместе с экспертами и героями испытывает современные бытовые приборы, кухонную технику, электронные гаджеты, а также изучает новые медицинские разработки.
Новинки и открытия со всего мира создатели проекта подвергнут самому тщательному анализу: что-то протестируют на себе или специально приглашенных героях, узнают мнения экспертов, постараются проникнуть в саму суть вещей при помощи компьютерной графики и экспериментов в лаборатории.
Постоянные рубрики:
тайны явлений и вещей
новинка недели
тестирование "чудо-товаров"
умелец недели
горячая пятёрка открытий и изобретений со всего мира
качество: SATRip
формат: AVI
Видео: XVID, 720x448, 1.607, 1800 Kbps, 25 fps
Аудио: MP3, 128 Kbps, 48 KHz, 2 channels
добавлены выпуски за ноябрь
пожалуйста, обновите торрент-файл

список выпусков

210 - 2018.01.21 : Главная выставка года в мире технологий, моржевание и рабочее место для юного мультипликатора
211 - 2018.01.28 : Вся правда об аромадиагностах, сенсационные исследования эфирных масел и секреты искусственного меха
212 - 2018.02.04 : В каких профессиях роботы заменят людей, кто такие ледовары, а также - двигатель внешнего сгорания
213 - 2018.02.11 : Опасно ли для здоровья долго не видеть солнца, проверка аттракционов в аквапарках и очищение труб с помощью новых бактерий
214 - 2018.02.18 : Что нужно знать о крови, чем хороша японская мочалка и как создать спальную зону в однушке?
215 - 2018.02.25 : Ланч-боксы с подогревом, специальный жилет для фигуристов и победа над инфарктом
216 - 2018.03.04 : Борьба с гололедицей, все секреты ароматизаторов для машин и приложение, помогающее следить за уровнем стресса
217 - 2018.03.11 : Новейшие модели дронов и роботов, все о водных процедурах и необычная система пожаротушения для машин
218 - 2018.03.18 : Все об электроодеялах и электропростынях, способы борьбы с кариесом и микроволновка против сосулек
219 - 2018.03.25 : Первая в мире летающая машина, все тонкости магнитотерапии и музыкальный инструмент российского болельщика
220 - 2018.04.01 : Гаджеты для незрячих людей, польза тренажеров-симуляторов и "умная" светодиодная лампа
221 - 2018.04.08 : Почему ухудшается память, тонкости использования GPS-трекеров и электронный штангенциркуль
222 - 2018.04.15 : Что наука знает о Луне, как сэкономить на ненужных вещах и стоит ли покупать дождевики для обуви
223 - 2018.04.22 : Секреты "телемедицины", лечение болезней с помощью Интернета и все о химчистке на дому
224 - 2018.05.06 : Тайны НЛО и миланская выставка дизайнерской мебели
225 - 2018.05.13 : Новации в похоронном деле, цифровая жизнь после смерти и все о пластиковых окнах
226 - 2018.05.20 : Лазерная коррекция зрения, испытания водяных матрасов, удобный электробайк и жидкое стекло для экрана
227 - 2018.05.27 : Спецвыпуск ко Дню защиты детей
228 - 2018.06.03 : Новации для мотоциклов, как избавиться от целлюлита и за счет чего работает шлем для считывания мимики
229 - 2018.06.11 : Кому нельзя носить обувь на плоской подошве, чем электроскейт лучше обычного и что делать, если укусила змея?
230 - 2018.06.17 : Самый большой в мире вентилятор, убивает ли микробы дезинфицирующий гель для рук и что делать, чтобы не сгореть на солнце?
231 - 2018.06.24 : Чем опасен кондиционер, можно ли выспаться за несколько часов, жидкий газон и супергель для эпиляции
232 - 2018.09.02 : Вся правда о мухах и средствах борьбы с двукрылыми, чистописание и его влияние на мозг
233 - 2018.09.09 : Электробусы в России, как можно увеличить свой рост и тайна Бермудского треугольника
234 - 2018.09.16 : Как выбирать джинсы и правильно их стирать, технические новинки сезона и съедобные духи
235 - 2018.09.23 : Что делать при укусах клещей, почему падают балконы и тест многофункционального "чудо-пекаря"
236 - 2018.09.30 : Вся правда о деньгах, тестирование гладильных досок и мощный внешний аккумулятор
237 - 2018.10.07 : Всё о близнецах, инновации для пожилых и приложение для подсчета зерен пшеницы
238 - 2018.10.14 : Как заработать на микродронах, лучшие технологии по реабилитации и органайзер для обуви
239 - 2018.10.21 : Высокотехнологичная ванная комната, разведение элитных лошадей и сыр в домашних условиях
240 - 2018.10.28 : Зачем в офисах спальные места и игры, а также - где пациентам реанимации предлагают пиво
241 - 2018.11.04 : Батареи: чугунные vs биметаллические, а также - средства от пылевых клещей
242 - 2018.11.11 : Чем опасна мебель из ДСП, вред сидячего образа жизни и постельное белье против морщин
243 - 2018.11.18 : Спецвыпуск Тело XXII века: как живут люди, усовершенствовавшие свое тело с помощью технологий
244 - 2018.11.25 : Способы заработать на ненужных вещах, все о носках и пластиковый корсет для реабилитации

MediaInfo

Выпуски 210-222,226,232-244

General
Complete name : X:\Чудо Техники\Чудо Техники 210 2018-01-21.avi
Format : AVI
Format/Info : Audio Video Interleave
File size : 548 MiB
Duration : 39mn 33s
Overall bit rate : 1 938 Kbps
Writing application : VirtualDubMod 1.5.10.3 | www.virtualdub-fr.org || (build 2550/release)
Writing library : VirtualDubMod build 2550/release
Video
ID : 0
Format : MPEG-4 Visual
Format profile : Advanced Simple@L5
Format settings, BVOP : Yes
Format settings, QPel : No
Format settings, GMC : No warppoints
Format settings, Matrix : Default (MPEG)
Codec ID : XVID
Codec ID/Hint : XviD
Duration : 39mn 33s
Bit rate : 1 800 Kbps
Width : 720 pixels
Height : 448 pixels
Display aspect ratio : 1.607
Frame rate : 25.000 fps
Resolution : 8 bits
Colorimetry : 4:2:0
Scan type : Progressive
Bits/(Pixel*Frame) : 0.223
Stream size : 509 MiB (93%)
Writing library : XviD 73
Audio
ID : 1
Format : MPEG Audio
Format version : Version 1
Format profile : Layer 3
Codec ID : 55
Codec ID/Hint : MP3
Duration : 39mn 33s
Bit rate mode : Constant
Bit rate : 128 Kbps
Channel(s) : 2 channels
Sampling rate : 48.0 KHz
Stream size : 36.2 MiB (7%)
Alignment : Aligned on interleaves
Interleave, duration : 40 ms (1.00 video frame)
Interleave, preload duration : 504 ms
Writing library : LAME3.99r
Encoding settings : -m s -V 4 -q 2 -lowpass 17 -b 128

Выпуски 223-225,227-231

General
Complete name : X:\Чудо Техники\Чудо Техники 223 2018-04-22.avi
Format : AVI
Format/Info : Audio Video Interleave
File size : 554 MiB
Duration : 40mn 0s
Overall bit rate : 1 938 Kbps
Writing application : VirtualDubMod 1.5.10.3 | www.virtualdub-fr.org || (build 2550/release)
Writing library : VirtualDubMod build 2550/release
Video
ID : 0
Format : MPEG-4 Visual
Format profile : Advanced Simple@L5
Format settings, BVOP : Yes
Format settings, QPel : No
Format settings, GMC : No warppoints
Format settings, Matrix : Default (MPEG)
Codec ID : XVID
Codec ID/Hint : XviD
Duration : 40mn 0s
Bit rate : 1 800 Kbps
Width : 720 pixels
Height : 448 pixels
Display aspect ratio : 1.607
Frame rate : 25.000 fps
Resolution : 8 bits
Colorimetry : 4:2:0
Scan type : Interlaced
Scan order : Bottom Field First
Bits/(Pixel*Frame) : 0.223
Stream size : 515 MiB (93%)
Writing library : XviD 73
Audio
ID : 1
Format : MPEG Audio
Format version : Version 1
Format profile : Layer 3
Codec ID : 55
Codec ID/Hint : MP3
Duration : 40mn 0s
Bit rate mode : Constant
Bit rate : 128 Kbps
Channel(s) : 2 channels
Sampling rate : 48.0 KHz
Stream size : 36.6 MiB (7%)
Alignment : Aligned on interleaves
Interleave, duration : 40 ms (1.00 video frame)
Interleave, preload duration : 504 ms
Writing library : LAME3.99r
Encoding settings : -m s -V 4 -q 2 -lowpass 17 -b 128

Скриншоты


Предыдущие выпуски:
Чудо Техники с Сергеем Малозёмовым, выпуски 1-128 [2012-2015, научно-популярная телепередача, SATRip]
Чудо Техники с Сергеем Малозёмовым, выпуски 129-169 [2016, научно-популярная телепередача, SATRip]
Чудо Техники с Сергеем Малозёмовым, выпуски 170-209 [2017, научно-популярная телепередача, SATRip]
[torrents24.ru].t64185.torrent 
Торрент: Зарегистрирован [ 2018-12-04 21:30 ] · 55E4FCC61FA20C194A792A9A30B865A8C4FCEECB

Скачать .torrent

Скачать

378 KB

Статус: проверено
Скачан: 0 раз
Размер: 18,75 GB

Профиль [ЛС]
Показать сообщения:    

Текущее время: 19-Дек 19:33

Часовой пояс: UTC + 3



Вы не можете начинать темы
Вы не можете отвечать на сообщения
Вы не можете редактировать свои сообщения
Вы не можете удалять свои сообщения
Вы не можете голосовать в опросах
Вы не можете прикреплять файлы к сообщениям
Вы можете скачивать файлы