Статистика раздачи
Размер:  2,18 GB   |    Зарегистрирован:  1 месяц 13 дней   |    Скачан:  0 раз

Полного источника не было: Никогда

 
   
 
 

АААааа ®

Пол:
Не указан
Стаж:
9 месяцев 19 дней
Сообщений:
1020

На самой грани
Год выпуска: 2018
Производство: Кинокомпания "УПС"
Жанр: мелодрама
Продолжительность: ~00:45:00 серия
Субтитры: нет
Режиссёр: Андрей Иванов
В ролях: Леванова, Алексей Череватенко, Екатерина Варченко, Артём Мяус, Артём Алексеев, Борислав Борисенко, Вячеслав Василюк, Наталия Цыганенко, Арина Петрова
Описание: В центре сюжета – тридцатилетняя Аня, которая работает в крупной компании. У нее замечательная семья – любящий муж Сергей, дочь-непоседа Маша. Но однажды девушка попадает в чудовищную аварию, в которой погибают водитель и ее лучшая подруга. Она – единственный выживший свидетель. Виновника аварии, матерого рецидивиста Зотова, который вез контейнер с кровью в больницу для своей сестры, задерживают. Его сестра умирает, и винит он в этом Аню, обещая отомстить. С этого момента жизнь Ани меняется. От пулевых ранений погибает ее руководитель Фомин, готовящийся к свадьбе с юристом Ольгой. Аню находят без сознания с пистолетом в руке на месте преступления, а в ее телефоне – любовные фото, указывающие на тайный роман с Фоминым. Следователь уверена: произошло убийство на почве ревности. Аню берут под стражу...

Реклама: Нет.
Все раздачи сериала
Sample
Качество: WEBRip - GeneralFilm
Формат: AVI
Видео кодек: XviD
Аудио кодек: AC3
Видео: 720x400 (1.80:1), 25 fps, XviD build 73 ~1520 kbps avg, 0.211 bit/pixel
Аудио: 48.0 kHz, AC3 Dolby Digital, 2/0 (L,R) ch, ~ 192 kbps

MI

General
Complete name : D:\Na.Samoj.Grani.2018.XviD.WEBRip.GeneralFilm\Na.Samoj.Grani.e01.avi
Format : AVI
Format/Info : Audio Video Interleave
File size : 557 MiB
Duration : 45 min 11 s
Overall bit rate : 1 723 kb/s
Writing application : VirtualDubMod 1.5.10.3 | www.virtualdub-fr.org || (build 2550/release)
Writing library : VirtualDubMod build 2550/release
Video
ID : 0
Format : MPEG-4 Visual
Format profile : Advanced Simple@L5
Format settings : BVOP1 / Custom Matrix
Format settings, BVOP : 1
Format settings, QPel : No
Format settings, GMC : No warppoints
Format settings, Matrix : Custom
Codec ID : XVID
Codec ID/Hint : XviD
Duration : 45 min 11 s
Bit rate : 1 521 kb/s
Width : 720 pixels
Height : 400 pixels
Display aspect ratio : 16:9
Frame rate : 25.000 FPS
Color space : YUV
Chroma subsampling : 4:2:0
Bit depth : 8 bits
Scan type : Progressive
Compression mode : Lossy
Bits/(Pixel*Frame) : 0.211
Stream size : 492 MiB (88%)
Writing library : XviD 73
Audio
ID : 1
Format : AC-3
Format/Info : Audio Coding 3
Codec ID : 2000
Duration : 45 min 11 s
Bit rate mode : Constant
Bit rate : 192 kb/s
Channel(s) : 2 channels
Channel positions : Front: L R
Sampling rate : 48.0 kHz
Frame rate : 31.250 FPS (1536 SPF)
Bit depth : 16 bits
Compression mode : Lossy
Stream size : 62.1 MiB (11%)
Alignment : Split accross interleaves
Interleave, duration : 40 ms (1.00 video frame)
Interleave, preload duratio : 500 ms
Service kind : Complete Main

Скриншоты


[torrents24.ru].t61359.torrent 
Торрент: Зарегистрирован [ 2018-11-06 17:55 ] · CEA02549ABE31A2ABFFA53E1B0F0D3F0FCE3914F

Скачать .torrent

Скачать

12 KB

Статус: проверено
Скачан: 0 раз
Размер: 2,18 GB

Профиль [ЛС]
Показать сообщения:    

Текущее время: 19-Дек 18:42

Часовой пояс: UTC + 3



Вы не можете начинать темы
Вы не можете отвечать на сообщения
Вы не можете редактировать свои сообщения
Вы не можете удалять свои сообщения
Вы не можете голосовать в опросах
Вы не можете прикреплять файлы к сообщениям
Вы можете скачивать файлы