Статистика раздачи
Размер:  130 MB   |    Зарегистрирован:  1 месяц 13 дней   |    Скачан:  0 раз

Полного источника не было: Никогда

 
   
 
 

hana vsem ®

Пол:
Не указан
Стаж:
10 месяцев 11 дней
Сообщений:
807

Счастливый принц / The Happy Prince
Название альбома: The Happy Prince
Жанр: Score
Композитор: Gabriel Yared
Год выпуска диска: 2018
Год выпуска фильма: 2018
Производитель фильма: UK, IT, DE
Издатель (лейбл): Plaza Mayor Company Ltd.
Номер по каталогу: SERG211
Аудиокодек: FLAC
Тип рипа: tracks+.cue
Битрейт аудио: lossless
Продолжительность: 00:21:26
Источник: Спасибо, Filex
Наличие сканов в содержимом раздачи: да
.
.
.
.

Треклист:

01. Gabriel Yared - Prelude (0:45)
02. Gabriel Yared - Prison (0:40)
03. Gabriel Yared - Arrival in Dieppe (1:00)
04. Gabriel Yared - Letter From Lord Douglas (1:04)
05. Gabriel Yared - Travelling to Berneval (0:56)
06. Gabriel Yared - Church (0:48)
07. Gabriel Yared - Bosie Arrives (1:32)
08. Gabriel Yared - Sunset on the Sea (2:01)
09. Gabriel Yared - It Is Finished (1:13)
10. Gabriel Yared - Volcano (1:36)
11. Gabriel Yared - The Happy Prince (3:04)
12. Gabriel Yared - Reggie Visits (1:51)
13. Gabriel Yared - Death of Oscar (1:49)
14. Gabriel Yared - Cemetery (2:14)
15. Gabriel Yared - Postlude (0:53)

Лог создания рипа:

Exact Audio Copy V1.3 from 2. September 2016
EAC extraction logfile from 11. October 2018, 11:22
Gabriel Yared / The Happy Prince
Used drive : PLEXTOR CD-R PX-230A Adapter: 1 ID: 1
Read mode : Secure
Utilize accurate stream : Yes
Defeat audio cache : Yes
Make use of C2 pointers : No
Read offset correction : 738
Overread into Lead-In and Lead-Out : No
Fill up missing offset samples with silence : Yes
Delete leading and trailing silent blocks : No
Null samples used in CRC calculations : Yes
Used interface : Native Win32 interface for Win NT & 2000
Gap handling : Appended to previous track
Used output format : User Defined Encoder
Selected bitrate : 1024 kBit/s
Quality : High
Add ID3 tag : No
Command line compressor : C:\Program Files\Exact Audio Copy\Flac\flac.exe
Additional command line options : -6 -V -T "ARTIST=%artist%" -T "TITLE=%title%" -T "ALBUM=%albumtitle%" -T "DATE=%year%" -T "TRACKNUMBER=%tracknr%" -T "GENRE=%genre%" -T "COMMENT=%comment%" -T "ALBUMARTIST=%albuminterpret%" -T "COMPOSER=%composer%" -T "DISCNUMBER=%cdnumber%" -T "TOTALDISCS=%totalcds%" -T "TOTALTRACKS=%numtracks%" %source% -o %dest%
TOC of the extracted CD
Track | Start | Length | Start sector | End sector
---------------------------------------------------------
1 | 0:00.00 | 0:45.07 | 0 | 3381
2 | 0:45.07 | 0:40.35 | 3382 | 6416
3 | 1:25.42 | 0:59.56 | 6417 | 10897
4 | 2:25.23 | 1:03.46 | 10898 | 15668
5 | 3:28.69 | 0:55.61 | 15669 | 19854
6 | 4:24.55 | 0:47.60 | 19855 | 23439
7 | 5:12.40 | 1:32.15 | 23440 | 30354
8 | 6:44.55 | 2:00.65 | 30355 | 39419
9 | 8:45.45 | 1:12.55 | 39420 | 44874
10 | 9:58.25 | 1:36.05 | 44875 | 52079
11 | 11:34.30 | 3:04.01 | 52080 | 65880
12 | 14:38.31 | 1:51.33 | 65881 | 74238
13 | 16:29.64 | 1:48.55 | 74239 | 82393
14 | 18:18.44 | 2:14.36 | 82394 | 92479
15 | 20:33.05 | 0:53.31 | 92480 | 96485
Track 1
Filename C:\Ripped by Filex\01 - Prelude.wav
Pre-gap length 0:00:02.00
Peak level 52.6 %
Extraction speed 4.0 X
Track quality 100.0 %
Test CRC 742EAFC8
Copy CRC 742EAFC8
Track not present in AccurateRip database
Copy OK
Track 2
Filename C:\Ripped by Filex\02 - Prison.wav
Peak level 92.5 %
Extraction speed 2.5 X
Track quality 99.7 %
Test CRC 368E36F1
Copy CRC 368E36F1
Track not present in AccurateRip database
Copy OK
Track 3
Filename C:\Ripped by Filex\03 - Arrival in Dieppe.wav
Peak level 78.2 %
Extraction speed 3.0 X
Track quality 99.8 %
Test CRC 2D75872A
Copy CRC 2D75872A
Track not present in AccurateRip database
Copy OK
Track 4
Filename C:\Ripped by Filex\04 - Letter From Lord Douglas.wav
Peak level 49.7 %
Extraction speed 4.6 X
Track quality 100.0 %
Test CRC EE07CF3E
Copy CRC EE07CF3E
Track not present in AccurateRip database
Copy OK
Track 5
Filename C:\Ripped by Filex\05 - Travelling to Berneval.wav
Peak level 63.1 %
Extraction speed 4.6 X
Track quality 100.0 %
Test CRC 173B9AC2
Copy CRC 173B9AC2
Track not present in AccurateRip database
Copy OK
Track 6
Filename C:\Ripped by Filex\06 - Church.wav
Peak level 60.9 %
Extraction speed 2.9 X
Track quality 99.7 %
Test CRC 78BACDF3
Copy CRC 78BACDF3
Track not present in AccurateRip database
Copy OK
Track 7
Filename C:\Ripped by Filex\07 - Bosie Arrives.wav
Peak level 53.1 %
Extraction speed 5.3 X
Track quality 100.0 %
Test CRC 06CC85B5
Copy CRC 06CC85B5
Track not present in AccurateRip database
Copy OK
Track 8
Filename C:\Ripped by Filex\08 - Sunset on the Sea.wav
Peak level 89.3 %
Extraction speed 5.6 X
Track quality 100.0 %
Test CRC C0AF1E6A
Copy CRC C0AF1E6A
Track not present in AccurateRip database
Copy OK
Track 9
Filename C:\Ripped by Filex\09 - It Is Finished.wav
Peak level 92.6 %
Extraction speed 3.9 X
Track quality 99.8 %
Test CRC 6934B904
Copy CRC 6934B904
Track not present in AccurateRip database
Copy OK
Track 10
Filename C:\Ripped by Filex\10 - Volcano.wav
Peak level 82.5 %
Extraction speed 5.6 X
Track quality 100.0 %
Test CRC 683B19EC
Copy CRC 683B19EC
Track not present in AccurateRip database
Copy OK
Track 11
Filename C:\Ripped by Filex\11 - The Happy Prince.wav
Peak level 58.6 %
Extraction speed 6.6 X
Track quality 100.0 %
Test CRC 68446389
Copy CRC 68446389
Track not present in AccurateRip database
Copy OK
Track 12
Filename C:\Ripped by Filex\12 - Reggie Visits.wav
Peak level 76.0 %
Extraction speed 6.2 X
Track quality 100.0 %
Test CRC 985A6DA3
Copy CRC 985A6DA3
Track not present in AccurateRip database
Copy OK
Track 13
Filename C:\Ripped by Filex\13 - Death of Oscar.wav
Peak level 92.6 %
Extraction speed 6.2 X
Track quality 100.0 %
Test CRC 922B1434
Copy CRC 922B1434
Track not present in AccurateRip database
Copy OK
Track 14
Filename C:\Ripped by Filex\14 - Cemetery.wav
Peak level 79.8 %
Extraction speed 6.5 X
Track quality 100.0 %
Test CRC DB704C23
Copy CRC DB704C23
Track not present in AccurateRip database
Copy OK
Track 15
Filename C:\Ripped by Filex\15 - Postlude.wav
Peak level 26.5 %
Extraction speed 4.9 X
Track quality 100.0 %
Test CRC 540E6316
Copy CRC 540E6316
Track not present in AccurateRip database
Copy OK
None of the tracks are present in the AccurateRip database
No errors occurred
End of status report
---- CUETools DB Plugin V2.1.6
[CTDB TOCID: dZOIs6vAZtX0JJamVQGpuzuzOqU-] disk not present in database
Submit result: dZOIs6vAZtX0JJamVQGpuzuzOqU- has been uploaded
==== Log checksum C196A6FE4017FE4F08AE2610CF4D14669C3D2808D6DFC6156110101E293875A3 ====

LOG (.CUE):

REM GENRE Soundtrack
REM DATE 2018
REM DISCID A405060F
REM COMMENT "ExactAudioCopy v1.3"
PERFORMER "Gabriel Yared"
TITLE "The Happy Prince"
REM COMPOSER "Gabriel Yared"
FILE "01 - Prelude.wav" WAVE
TRACK 01 AUDIO
TITLE "Prelude"
PERFORMER "Gabriel Yared"
REM COMPOSER "Gabriel Yared"
FLAGS DCP
INDEX 01 00:00:00
FILE "02 - Prison.wav" WAVE
TRACK 02 AUDIO
TITLE "Prison"
PERFORMER "Gabriel Yared"
REM COMPOSER "Gabriel Yared"
FLAGS DCP
INDEX 01 00:00:00
FILE "03 - Arrival in Dieppe.wav" WAVE
TRACK 03 AUDIO
TITLE "Arrival in Dieppe"
PERFORMER "Gabriel Yared"
REM COMPOSER "Gabriel Yared"
FLAGS DCP
INDEX 01 00:00:00
FILE "04 - Letter From Lord Douglas.wav" WAVE
TRACK 04 AUDIO
TITLE "Letter From Lord Douglas"
PERFORMER "Gabriel Yared"
REM COMPOSER "Gabriel Yared"
FLAGS DCP
INDEX 01 00:00:00
FILE "05 - Travelling to Berneval.wav" WAVE
TRACK 05 AUDIO
TITLE "Travelling to Berneval"
PERFORMER "Gabriel Yared"
REM COMPOSER "Gabriel Yared"
FLAGS DCP
INDEX 01 00:00:00
FILE "06 - Church.wav" WAVE
TRACK 06 AUDIO
TITLE "Church"
PERFORMER "Gabriel Yared"
REM COMPOSER "Gabriel Yared"
FLAGS DCP
INDEX 01 00:00:00
FILE "07 - Bosie Arrives.wav" WAVE
TRACK 07 AUDIO
TITLE "Bosie Arrives"
PERFORMER "Gabriel Yared"
REM COMPOSER "Gabriel Yared"
FLAGS DCP
INDEX 01 00:00:00
FILE "08 - Sunset on the Sea.wav" WAVE
TRACK 08 AUDIO
TITLE "Sunset on the Sea"
PERFORMER "Gabriel Yared"
REM COMPOSER "Gabriel Yared"
FLAGS DCP
INDEX 01 00:00:00
FILE "09 - It Is Finished.wav" WAVE
TRACK 09 AUDIO
TITLE "It Is Finished"
PERFORMER "Gabriel Yared"
REM COMPOSER "Gabriel Yared"
FLAGS DCP
INDEX 01 00:00:00
FILE "10 - Volcano.wav" WAVE
TRACK 10 AUDIO
TITLE "Volcano"
PERFORMER "Gabriel Yared"
REM COMPOSER "Gabriel Yared"
FLAGS DCP
INDEX 01 00:00:00
FILE "11 - The Happy Prince.wav" WAVE
TRACK 11 AUDIO
TITLE "The Happy Prince"
PERFORMER "Gabriel Yared"
REM COMPOSER "Gabriel Yared"
FLAGS DCP
INDEX 01 00:00:00
FILE "12 - Reggie Visits.wav" WAVE
TRACK 12 AUDIO
TITLE "Reggie Visits"
PERFORMER "Gabriel Yared"
REM COMPOSER "Gabriel Yared"
FLAGS DCP
INDEX 01 00:00:00
FILE "13 - Death of Oscar.wav" WAVE
TRACK 13 AUDIO
TITLE "Death of Oscar"
PERFORMER "Gabriel Yared"
REM COMPOSER "Gabriel Yared"
FLAGS DCP
INDEX 01 00:00:00
FILE "14 - Cemetery.wav" WAVE
TRACK 14 AUDIO
TITLE "Cemetery"
PERFORMER "Gabriel Yared"
REM COMPOSER "Gabriel Yared"
FLAGS DCP
INDEX 01 00:00:00
FILE "15 - Postlude.wav" WAVE
TRACK 15 AUDIO
TITLE "Postlude"
PERFORMER "Gabriel Yared"
REM COMPOSER "Gabriel Yared"
FLAGS DCP
INDEX 01 00:00:00
-

Доп. информация:

Plaza Mayor Company will release a soundtrack album for the biographical drama The Happy Prince. The album features the film’s original music composed by Academy Award winner Gabriel Yared (The English Patient, The Talented Mr. Ripley, Cold Mountain, 1408). The soundtrack will be released digitally & physically. The Happy Prince is directed by Rupert Everett who also stars in the movie with Colin Firth, Edwin Thomas, Colin Morgan, Emily Watson, Tom Wilkinson, Miranda Richardson, Beatrice Dalle and John Standing. The movie tells the story of the last days of famed playwright Oscar Wilde. The drama premiered at this year’s Sundance Film Festival and will be released in New York and Los Angeles on October 10 by Sony Pictures Classics before expanding to more markets within the following weeks.
- - RG Soundtracks-
[torrents24.ru].t61280.torrent 
Торрент: Зарегистрирован [ 2018-11-06 17:55 ] · 1A44CC0F454FD5C37A1566269B17F51B0D044F81

Скачать .torrent

Скачать

12 KB

Статус: проверено
Скачан: 0 раз
Размер: 130 MB

Профиль [ЛС]
Показать сообщения:    

Текущее время: 19-Дек 19:39

Часовой пояс: UTC + 3



Вы не можете начинать темы
Вы не можете отвечать на сообщения
Вы не можете редактировать свои сообщения
Вы не можете удалять свои сообщения
Вы не можете голосовать в опросах
Вы не можете прикреплять файлы к сообщениям
Вы можете скачивать файлы