Статистика раздачи
Размер:  776 MB   |    Зарегистрирован:  6 дней   |    Скачан:  0 раз

Полного источника не было: Никогда

 
   
 
 

Олег ®

Пол:
Не указан
Стаж:
9 месяцев 4 дня
Сообщений:
287

Queen-История альбома News of the World(русский перевод 1й канал) Жанр: Rock, Documentary
Продолжительность: 00:58:51
Год выпуска: 2018
Описание: Фильм начинается и заканчивается фрагментом концерта Queen 2017г...В середине идет рассказ о записи легендарного альбома News of the World....основной материал был снят ведущим BBC Бобом Хэррисом в далеком 1977 году, и увидел свет только к 40-летнему юбилею этой пластинки.
( материалом с русским переводом любезно поделился YUKOV )
Треклист:
Пролог(фрагмент концерта 2017г)
Back Into The Studio
We Will Rock You / We Are The Champions
Taking Control
04 Sheer Heart Attack
05 The American Tour
06 It's Late
07 Spread Your Wings
08 My Melancholy Blues
Get Down, Make Love
We Are The Champions
Эпилог (фрагмент концерта 2017г)

Доп. информация: по видео

скрытый текст

Полное имя : Queen История альбома News of the World(русский перевод 1й канал).avi
Формат : AVI
Формат/Информация : Audio Video Interleave
Размер файла : 776 Мбайт
Продолжительность : 58 м.
Общий поток : 1843 Кбит/сек
Программа кодирования : Lavf51.12.1
Видео
Идентификатор : 0
Формат : xvid
Идентификатор кодека : xvid
Продолжительность : 58 м.
Битрейт : 1640 Кбит/сек
Ширина : 688 пикселей
Высота : 384 пикселя
Соотношение сторон : 16:9
Частота кадров : 25,000 кадров/сек
Бит/(Пиксели*Кадры) : 0.248
Размер потока : 690 Мбайт (89%)
Аудио
Идентификатор : 1
Формат : AC-3
Формат/Информация : Audio Coding 3
Расширение режима : CM (complete main)
Параметр Endianness формата : Big
Идентификатор кодека : 2000
Продолжительность : 58 м.
Вид битрейта : Постоянный
Битрейт : 192 Кбит/сек
Каналы : 2 канала
Расположение каналов : Front: L R
Частота : 48,0 КГц
Битовая глубина : 16 бит
Метод сжатия : С потерями
Размер потока : 80,8 Мбайт (10%)
Выравнивание : Соединение по промежуткам
Продолжительность промежутка : 32 мс. (0,80 видеокадр)
Время предзагрузки промежутка : 32 мс.
Источник: собственный рип
Cсылка http://rutracker.org/forum/viewtopic.php?sid=0zGS7xyV&t=5638793
Качество: HDTVRip
Контейнер: AVI
Видео кодек: XviD
Аудио кодек: AC3
Видео: 688x384 (1.79:1), 25 fps, XviD build 63 ~1639 kbps avg, 0.25 bit/pixel
Аудио: 48 kHz, AC3 Dolby Digital, 2/0 (L,R) ch, ~192.00 kbps avg

Скриншоты

Мои другие раздачи 1 - http://rutracker.org/forum/tracker.php?rid=14861751
Мои другие раздачи 2- http://rutracker.org/forum/tracker.php?rid=26740408Приятного просмотра!
[torrents24.ru].t61278.torrent 
Торрент: Зарегистрирован [ 2018-11-06 17:55 ] · F94570B788F9F610C866B15CFE64EBEA07948B9B

Скачать .torrent

Скачать

16 KB

Статус: проверено
Скачан: 0 раз
Размер: 776 MB

Профиль [ЛС]
Показать сообщения:    

Текущее время: 13-Ноя 00:56

Часовой пояс: UTC + 3



Вы не можете начинать темы
Вы не можете отвечать на сообщения
Вы не можете редактировать свои сообщения
Вы не можете удалять свои сообщения
Вы не можете голосовать в опросах
Вы не можете прикреплять файлы к сообщениям
Вы можете скачивать файлы